蓝光电影网

 找回密码
 立即注册

QQ登录

只需一步,快速开始

查看: 6211|回复: 0

[REMUX.HEVC] 比尔和泰德历险记/比尔和泰德的奇异冒险 Bill.and.Teds.Excellent.Adventure.1989.2160p.BluRay.REMUX.HEVC.DTS-HD.MA.5.1-FGT 56.17GB

[复制链接]

已抛锚 成长值: 310

7万

主题

7万

帖子

8万

积分

管理员

Rank: 9Rank: 9Rank: 9

积分
81221
发表于 2020-8-16 21:50:17 | 显示全部楼层 |阅读模式
004616ipzkzh82ior19xrb.jpg

译  名 比尔和泰德历险记 / 比尔和泰德的奇异冒险 / 超时空历险记 / 阿比阿弟的冒险 / 阿比阿弟闯天关(台)
片  名 Bill & Ted's Excellent Adventure
年  代 1989
产  地 美国
类  别 笑剧 / 科幻 / 家庭 / 冒险
语  言 英语 / 法语 / 德语
上映日期 1989-02-17(美国)
IMDb评分6.9/10 from 108520 users
IMDb链接https://www.imdb.com/title/tt0096928
豆瓣评分 6.9/10 from 1458 users
豆瓣链接 https://movie.douban.com/subject/1293895/
片  长 90分钟
导  演 斯蒂芬·赫瑞克 Stephen Herek
编  剧 Chris Matheson / 爱德·索罗门 Ed Solomon
主  演 斯蒂芬·赫瑞克 Stephen Herek
     爱德·索罗门 Ed Solomon
     基努·李维斯 Keanu Reeves
     亚历克斯·温特 Alex Winter
     乔治·卡林 George Carlin
     丹·肖尔 Dan Shor
     Rod Loomis
     Al Leong
     Jane Wiedlin
     Robert V. Barron
     Clifford David
     Hal Landon Jr.
     Bernie Casey
     Amy Stock-Poynton

标  签 笑剧 | 科幻 | 美国 | 青春 | KeanuReeves | 1989 | 美国电影 | 穿越
简  介
  泰德(基努·里维斯 Keanu Reeves 饰)和比尔(亚历克斯·温特 Alex Winter 饰)是就读于同一所高中的同学,两人之间豪情非常要好。也许,他们会如此一见仍旧的缘由在于,两人的智商处在同一水平线上,没错,就是那条比他人都低的水平线。更糟糕的是,比尔和泰德在一路只晓得全日游手好闲,丝绝不将心机放在进修上,成便不可思议。
  历史考试在即,就在这个节骨眼上,泰德和比尔得知了一个惊天凶讯,假如不能经过此次考试,他们就将没法拿到结业证书,一会儿懵了的两人堕入了手足无措当中。就在此时,一位名叫鲁佛斯(乔治·卡林 George Carlin 饰)的天外来客出现在了他们眼前,他自称来自未来天下。不管鲁佛斯所言是真是假,泰德和比尔大白,他是他们那道结业证书的唯逐一根拯救稻草。
  1. Video #1
  2. ID             : 1
  3. ID in the original source medium   : 4113 (0x1011)
  4. Format           : HEVC
  5. Format/Info          : High Efficiency Video Coding
  6. Format profile         : Main [email]10@L5.1[/email]@High
  7. HDR format           : SMPTE ST 2086, HDR10 compatible
  8. Codec ID           : V_MPEGH/ISO/HEVC
  9. Duration           : 1 h 29 min
  10. Bit rate           : 79.8 Mb/s
  11. Width            : 3 840 pixels
  12. Height           : 2 160 pixels
  13. Display aspect ratio       : 16:9
  14. Frame rate mode        : Constant
  15. Frame rate           : 24.000 FPS
  16. Color space          : YUV
  17. Chroma subsampling       : 4:2:0 (Type 2)
  18. Bit depth          : 10 bits
  19. Bits/(Pixel*Frame)       : 0.401
  20. Stream size          : 50.1 GiB (89%)
  21. Title            : Bill.and.Teds.Excellent.Adventure.1989.2160p.BluRay.REMUX.HEVC.DTS-HD.MA.5.1-FGT
  22. Writing library        : x265 3.3+21-6bb2d88029c2:[Windows][GCC 6.3.0][64 bit] 10bit
  23. Encoding settings        : cpuid=1111039 / frame-threads=6 / numa-pools=16,16,16,16 / wpp / no-pmode / no-pme / no-psnr / no-ssim / log-level=2 / input-csp=1 / input-res=3840x2160 / interlace=0 / total-frames=15868 / level-idc=51 / high-tier=1 / uhd-bd=1 / ref=5 / no-allow-non-conformance / repeat-headers / annexb / aud / hrd / info / hash=0 / no-temporal-layers / no-open-gop / min-keyint=1 / keyint=24 / gop-lookahead=0 / bframes=3 / b-adapt=2 / b-pyramid / bframe-bias=0 / rc-lookahead=24 / lookahead-slices=0 / scenecut=40 / hist-scenecut=0 / radl=0 / no-splice / no-intra-refresh / ctu=64 / min-cu-size=8 / rect / amp / max-tu-size=32 / tu-inter-depth=3 / tu-intra-depth=3 / limit-tu=0 / rdoq-level=2 / dynamic-rd=0.00 / no-ssim-rd / signhide / tskip / nr-intra=0 / nr-inter=0 / constrained-intra / no-strong-intra-smoothing / max-merge=5 / limit-refs=0 / no-limit-modes / me=3 / subme=4 / merange=57 / temporal-mvp / no-frame-dup / no-hme / weightp / weightb / no-analyze-src-pics / deblock=-2:-2 / no-sao / no-sao-non-deblock / rd=6 / selective-sao=0 / no-early-skip / rskip / no-fast-intra / no-tskip-fast / cu-lossless / b-intra / no-splitrd-skip / rdpenalty=0 / psy-rd=5.00 / psy-rdoq=50.00 / no-rd-refine / no-lossless / cbqpoffs=0 / crqpoffs=0 / rc=cbr / bitrate=80000 / qcomp=0.60 / qpstep=4 / stats-write=1 / stats-read=0 / slow-firstpass / vbv-maxrate=80000 / vbv-bufsize=99000 / vbv-init=0.9 / ipratio=1.40 / pbratio=1.30 / aq-mode=2 / aq-strength=0.80 / no-cutree / zone-count=0 / no-strict-cbr / qg-size=32 / no-rc-grain / qpmax=69 / qpmin=0 / no-const-vbv / sar=1 / overscan=0 / videoformat=5 / range=0 / colorprim=9 / transfer=16 / colormatrix=9 / chromaloc=1 / chromaloc-top=2 / chromaloc-bottom=2 / display-window=0 / master-display=G(8500,39850)B(6550,2300)R(35400,14600)WP(15635,16450)L(10000000,1) / cll=0,0 / min-luma=0 / max-luma=1023 / log2-max-poc-lsb=8 / vui-timing-info / vui-hrd-info / slices=1 / no-opt-qp-pps / no-opt-ref-list-length-pps / no-multi-pass-opt-rps / scenecut-bias=0.05 / hist-threshold=0.01 / no-opt-cu-delta-qp / no-aq-motion / hdr10 / hdr10-opt / no-dhdr10-opt / no-idr-recovery-sei / analysis-reuse-level=0 / analysis-save-reuse-level=0 / analysis-load-reuse-level=0 / scale-factor=0 / refine-intra=0 / refine-inter=0 / refine-mv=1 / refine-ctu-distortion=0 / no-limit-sao / ctu-info=0 / no-lowpass-dct / refine-analysis-type=0 / copy-pic=1 / max-ausize-factor=1.0 / no-dynamic-refine / no-single-sei / no-hevc-aq / no-svt / no-field / qp-adaptation-range=1.00 / no-scenecut-aware-qpconformance-window-offsets / right=0 / bottom=0 / decoder-max-rate=0
  24. Language           : English
  25. Default            : Yes
  26. Forced           : No
  27. Color range          : Limited
  28. Color primaries        : BT.2020
  29. Transfer characteristics     : PQ
  30. Matrix coefficients        : BT.2020 non-constant
  31. Mastering display color primaries  : BT.2020
  32. Mastering display luminance    : min: 0.0001 cd/m2, max: 1000 cd/m2
  33. Original source medium       : Blu-ray

  34. Video #2
  35. ID             : 2
  36. ID in the original source medium   : 4117 (0x1015)
  37. Format           : HEVC
  38. Format/Info          : High Efficiency Video Coding
  39. Format profile         : Main [email]10@L5.1[/email]@High
  40. HDR format           : SMPTE ST 2086, HDR10 compatible
  41. Codec ID           : V_MPEGH/ISO/HEVC
  42. Duration           : 1 h 29 min
  43. Bit rate           : 84.1 kb/s
  44. Width            : 1 920 pixels
  45. Height           : 1 080 pixels
  46. Display aspect ratio       : 16:9
  47. Frame rate mode        : Constant
  48. Frame rate           : 24.000 FPS
  49. Color space          : YUV
  50. Chroma subsampling       : 4:2:0 (Type 2)
  51. Bit depth          : 10 bits
  52. Bits/(Pixel*Frame)       : 0.002
  53. Stream size          : 54.0 MiB (0%)
  54. Title            : Bill.and.Teds.Excellent.Adventure.1989.2160p.BluRay.REMUX.HEVC.DTS-HD.MA.5.1-FGT
  55. Writing library        : x265 3.3+21-6bb2d88029c2:[Windows][GCC 6.3.0][64 bit] 10bit
  56. Encoding settings        : cpuid=1111039 / frame-threads=5 / numa-pools=16,16 / wpp / no-pmode / no-pme / no-psnr / no-ssim / log-level=2 / input-csp=1 / input-res=1920x1080 / interlace=0 / total-frames=15868 / level-idc=51 / high-tier=1 / uhd-bd=1 / ref=4 / no-allow-non-conformance / repeat-headers / annexb / aud / hrd / info / hash=0 / no-temporal-layers / no-open-gop / min-keyint=1 / keyint=24 / gop-lookahead=0 / bframes=3 / b-adapt=2 / b-pyramid / bframe-bias=0 / rc-lookahead=24 / lookahead-slices=4 / scenecut=40 / hist-scenecut=0 / radl=0 / no-splice / no-intra-refresh / ctu=64 / min-cu-size=8 / rect / no-amp / max-tu-size=32 / tu-inter-depth=1 / tu-intra-depth=1 / limit-tu=0 / rdoq-level=2 / dynamic-rd=0.00 / no-ssim-rd / signhide / no-tskip / nr-intra=0 / nr-inter=0 / no-constrained-intra / strong-intra-smoothing / max-merge=3 / limit-refs=3 / limit-modes / me=3 / subme=3 / merange=57 / temporal-mvp / no-frame-dup / no-hme / weightp / no-weightb / no-analyze-src-pics / deblock=0:0 / sao / no-sao-non-deblock / rd=4 / selective-sao=4 / no-early-skip / rskip / no-fast-intra / no-tskip-fast / no-cu-lossless / no-b-intra / no-splitrd-skip / rdpenalty=0 / psy-rd=2.00 / psy-rdoq=1.00 / no-rd-refine / no-lossless / cbqpoffs=0 / crqpoffs=0 / rc=cbr / bitrate=500 / qcomp=0.60 / qpstep=4 / stats-write=0 / stats-read=0 / vbv-maxrate=500 / vbv-bufsize=550 / vbv-init=0.9 / ipratio=1.40 / pbratio=1.30 / aq-mode=2 / aq-strength=1.00 / cutree / zone-count=0 / no-strict-cbr / qg-size=32 / no-rc-grain / qpmax=69 / qpmin=0 / no-const-vbv / sar=1 / overscan=0 / videoformat=5 / range=0 / colorprim=9 / transfer=16 / colormatrix=9 / chromaloc=1 / chromaloc-top=2 / chromaloc-bottom=2 / display-window=0 / master-display=G(8500,39850)B(6550,2300)R(35400,14600)WP(15635,16450)L(10000000,1) / cll=0,0 / min-luma=0 / max-luma=1023 / log2-max-poc-lsb=8 / vui-timing-info / vui-hrd-info / slices=1 / no-opt-qp-pps / no-opt-ref-list-length-pps / no-multi-pass-opt-rps / scenecut-bias=0.05 / hist-threshold=0.01 / no-opt-cu-delta-qp / no-aq-motion / hdr10 / hdr10-opt / no-dhdr10-opt / no-idr-recovery-sei / analysis-reuse-level=0 / analysis-save-reuse-level=0 / analysis-load-reuse-level=0 / scale-factor=0 / refine-intra=0 / refine-inter=0 / refine-mv=1 / refine-ctu-distortion=0 / no-limit-sao / ctu-info=0 / no-lowpass-dct / refine-analysis-type=0 / copy-pic=1 / max-ausize-factor=1.0 / no-dynamic-refine / no-single-sei / no-hevc-aq / no-svt / no-field / qp-adaptation-range=1.00 / no-scenecut-aware-qpconformance-window-offsets / right=0 / bottom=0 / decoder-max-rate=0
  57. Language           : English
  58. Default            : No
  59. Forced           : No
  60. Color range          : Limited
  61. Color primaries        : BT.2020
  62. Transfer characteristics     : PQ
  63. Matrix coefficients        : BT.2020 non-constant
  64. Mastering display color primaries  : BT.2020
  65. Mastering display luminance    : min: 0.0001 cd/m2, max: 1000 cd/m2
  66. Original source medium       : Blu-ray

  67. Audio #1
  68. ID             : 3
  69. Format           : DTS XLL
  70. Format/Info          : Digital Theater Systems
  71. Commercial name        : DTS-HD Master Audio
  72. Codec ID           : A_DTS
  73. Duration           : 1 h 29 min
  74. Bit rate mode          : Variable
  75. Bit rate           : 3 896 kb/s
  76. Channel(s)           : 6 channels
  77. Channel layout         : C L R Ls Rs LFE
  78. Sampling rate          : 48.0 kHz
  79. Frame rate           : 93.750 FPS (512 SPF)
  80. Bit depth          : 24 bits
  81. Compression mode         : Lossless
  82. Stream size          : 2.45 GiB (4%)
  83. Title            : Bill.and.Teds.Excellent.Adventure.1989.2160p.BluRay.REMUX.HEVC.DTS-HD.MA.5.1-FGT
  84. Language           : English
  85. Default            : Yes
  86. Forced           : No

  87. Audio #2
  88. ID             : 4
  89. ID in the original source medium   : 4352 (0x1100)
  90. Format           : DTS XLL
  91. Format/Info          : Digital Theater Systems
  92. Commercial name        : DTS-HD Master Audio
  93. Codec ID           : A_DTS
  94. Duration           : 1 h 29 min
  95. Bit rate mode          : Variable
  96. Bit rate           : 1 765 kb/s
  97. Channel(s)           : 2 channels
  98. Channel layout         : L R
  99. Sampling rate          : 48.0 kHz
  100. Frame rate           : 93.750 FPS (512 SPF)
  101. Bit depth          : 24 bits
  102. Compression mode         : Lossless
  103. Stream size          : 1.11 GiB (2%)
  104. Title            : Bill.and.Teds.Excellent.Adventure.1989.2160p.BluRay.REMUX.HEVC.DTS-HD.MA.5.1-FGT
  105. Language           : English
  106. Default            : No
  107. Forced           : No
  108. Original source medium       : Blu-ray

  109. Audio #3
  110. ID             : 5
  111. ID in the original source medium   : 4353 (0x1101)
  112. Format           : DTS XLL
  113. Format/Info          : Digital Theater Systems
  114. Commercial name        : DTS-HD Master Audio
  115. Codec ID           : A_DTS
  116. Duration           : 1 h 29 min
  117. Bit rate mode          : Variable
  118. Bit rate           : 1 717 kb/s
  119. Channel(s)           : 2 channels
  120. Channel layout         : L R
  121. Sampling rate          : 48.0 kHz
  122. Frame rate           : 93.750 FPS (512 SPF)
  123. Bit depth          : 24 bits
  124. Compression mode         : Lossless
  125. Stream size          : 1.08 GiB (2%)
  126. Title            : Bill.and.Teds.Excellent.Adventure.1989.2160p.BluRay.REMUX.HEVC.DTS-HD.MA.5.1-FGT
  127. Language           : German
  128. Default            : No
  129. Forced           : No
  130. Original source medium       : Blu-ray

  131. Audio #4
  132. ID             : 6
  133. ID in the original source medium   : 4354 (0x1102)
  134. Format           : DTS XLL
  135. Format/Info          : Digital Theater Systems
  136. Commercial name        : DTS-HD Master Audio
  137. Codec ID           : A_DTS
  138. Duration           : 1 h 29 min
  139. Bit rate mode          : Variable
  140. Bit rate           : 1 693 kb/s
  141. Channel(s)           : 2 channels
  142. Channel layout         : L R
  143. Sampling rate          : 48.0 kHz
  144. Frame rate           : 93.750 FPS (512 SPF)
  145. Bit depth          : 24 bits
  146. Compression mode         : Lossless
  147. Stream size          : 1.06 GiB (2%)
  148. Title            : Bill.and.Teds.Excellent.Adventure.1989.2160p.BluRay.REMUX.HEVC.DTS-HD.MA.5.1-FGT
  149. Language           : French
  150. Default            : No
  151. Forced           : No
  152. Original source medium       : Blu-ray

  153. Audio #5
  154. ID             : 7
  155. ID in the original source medium   : 4355 (0x1103)
  156. Format           : AC-3
  157. Format/Info          : Audio Coding 3
  158. Commercial name        : Dolby Digital
  159. Codec ID           : A_AC3
  160. Duration           : 1 h 29 min
  161. Bit rate mode          : Constant
  162. Bit rate           : 192 kb/s
  163. Channel(s)           : 2 channels
  164. Channel layout         : L R
  165. Sampling rate          : 48.0 kHz
  166. Frame rate           : 31.250 FPS (1536 SPF)
  167. Bit depth          : 16 bits
  168. Compression mode         : Lossy
  169. Stream size          : 123 MiB (0%)
  170. Title            : Bill.and.Teds.Excellent.Adventure.1989.2160p.BluRay.REMUX.HEVC.DTS-HD.MA.5.1-FGT
  171. Language           : English
  172. Service kind         : Complete Main
  173. Default            : No
  174. Forced           : No
  175. Original source medium       : Blu-ray

  176. Audio #6
  177. ID             : 8
  178. ID in the original source medium   : 4356 (0x1104)
  179. Format           : AC-3
  180. Format/Info          : Audio Coding 3
  181. Commercial name        : Dolby Digital
  182. Codec ID           : A_AC3
  183. Duration           : 1 h 29 min
  184. Bit rate mode          : Constant
  185. Bit rate           : 192 kb/s
  186. Channel(s)           : 2 channels
  187. Channel layout         : L R
  188. Sampling rate          : 48.0 kHz
  189. Frame rate           : 31.250 FPS (1536 SPF)
  190. Bit depth          : 16 bits
  191. Compression mode         : Lossy
  192. Stream size          : 123 MiB (0%)
  193. Title            : Bill.and.Teds.Excellent.Adventure.1989.2160p.BluRay.REMUX.HEVC.DTS-HD.MA.5.1-FGT
  194. Language           : English
  195. Service kind         : Complete Main
  196. Default            : No
  197. Forced           : No
  198. Original source medium       : Blu-ray

  199. Text #1
  200. ID             : 9
  201. Format           : UTF-8
  202. Codec ID           : S_TEXT/UTF8
  203. Codec ID/Info          : UTF-8 Plain Text
  204. Duration           : 32 min 46 s
  205. Bit rate           : 1 b/s
  206. Count of elements        : 18
  207. Stream size          : 486 Bytes (0%)
  208. Title            : English-FORCED-SRT
  209. Language           : English
  210. Default            : Yes
  211. Forced           : Yes

  212. Text #2
  213. ID             : 10
  214. Format           : UTF-8
  215. Codec ID           : S_TEXT/UTF8
  216. Codec ID/Info          : UTF-8 Plain Text
  217. Duration           : 1 h 23 min
  218. Bit rate           : 47 b/s
  219. Count of elements        : 981
  220. Stream size          : 29.3 KiB (0%)
  221. Title            : English-SRT
  222. Language           : English
  223. Default            : No
  224. Forced           : No

  225. Text #3
  226. ID             : 11
  227. Format           : UTF-8
  228. Codec ID           : S_TEXT/UTF8
  229. Codec ID/Info          : UTF-8 Plain Text
  230. Duration           : 1 h 25 min
  231. Bit rate           : 52 b/s
  232. Count of elements        : 1159
  233. Stream size          : 33.0 KiB (0%)
  234. Title            : English-SDH-SRT
  235. Language           : English
  236. Default            : No
  237. Forced           : No

  238. Text #4
  239. ID             : 12
  240. ID in the original source medium   : 4768 (0x12A0)
  241. Format           : PGS
  242. Muxing mode          : zlib
  243. Codec ID           : S_HDMV/PGS
  244. Codec ID/Info          : Picture based subtitle format used on BDs/HD-DVDs
  245. Duration           : 1 h 25 min
  246. Bit rate           : 33.8 kb/s
  247. Count of elements        : 2309
  248. Stream size          : 20.7 MiB (0%)
  249. Title            : English-PGS
  250. Language           : English
  251. Default            : No
  252. Forced           : No
  253. Original source medium       : Blu-ray

  254. Text #5
  255. ID             : 13
  256. ID in the original source medium   : 4769 (0x12A1)
  257. Format           : PGS
  258. Muxing mode          : zlib
  259. Codec ID           : S_HDMV/PGS
  260. Codec ID/Info          : Picture based subtitle format used on BDs/HD-DVDs
  261. Duration           : 1 h 25 min
  262. Bit rate           : 26.4 kb/s
  263. Count of elements        : 1558
  264. Stream size          : 16.1 MiB (0%)
  265. Title            : German-PGS
  266. Language           : German
  267. Default            : No
  268. Forced           : No
  269. Original source medium       : Blu-ray

  270. Text #6
  271. ID             : 14
  272. ID in the original source medium   : 4770 (0x12A2)
  273. Format           : PGS
  274. Muxing mode          : zlib
  275. Codec ID           : S_HDMV/PGS
  276. Codec ID/Info          : Picture based subtitle format used on BDs/HD-DVDs
  277. Duration           : 1 h 28 min
  278. Bit rate           : 26.3 kb/s
  279. Count of elements        : 1803
  280. Stream size          : 16.7 MiB (0%)
  281. Title            : French-PGS
  282. Language           : French
  283. Default            : No
  284. Forced           : No
  285. Original source medium       : Blu-ray

  286. Text #7
  287. ID             : 15
  288. ID in the original source medium   : 4771 (0x12A3)
  289. Format           : PGS
  290. Muxing mode          : zlib
  291. Codec ID           : S_HDMV/PGS
  292. Codec ID/Info          : Picture based subtitle format used on BDs/HD-DVDs
  293. Duration           : 32 min 46 s
  294. Bit rate           : 1 745 b/s
  295. Count of elements        : 27
  296. Stream size          : 419 KiB (0%)
  297. Title            : English-FORCED-PGS
  298. Language           : English
  299. Default            : No
  300. Forced           : No
  301. Original source medium       : Blu-ray

  302. Text #8
  303. ID             : 16
  304. ID in the original source medium   : 4772 (0x12A4)
  305. Format           : PGS
  306. Muxing mode          : zlib
  307. Codec ID           : S_HDMV/PGS
  308. Codec ID/Info          : Picture based subtitle format used on BDs/HD-DVDs
  309. Duration           : 50 min 34 s
  310. Bit rate           : 1 482 b/s
  311. Count of elements        : 24
  312. Stream size          : 549 KiB (0%)
  313. Title            : German-FORCED-PGS
  314. Language           : German
  315. Default            : No
  316. Forced           : No
  317. Original source medium       : Blu-ray

  318. Text #9
  319. ID             : 17
  320. ID in the original source medium   : 4773 (0x12A5)
  321. Format           : PGS
  322. Muxing mode          : zlib
  323. Codec ID           : S_HDMV/PGS
  324. Codec ID/Info          : Picture based subtitle format used on BDs/HD-DVDs
  325. Duration           : 51 min 40 s
  326. Bit rate           : 837 b/s
  327. Count of elements        : 29
  328. Stream size          : 317 KiB (0%)
  329. Title            : French-FORCED-PGS
  330. Language           : French
  331. Default            : No
  332. Forced           : No
  333. Original source medium       : Blu-ray

  334. Text #10
  335. ID             : 18
  336. ID in the original source medium   : 4774 (0x12A6)
  337. Format           : PGS
  338. Muxing mode          : zlib
  339. Codec ID           : S_HDMV/PGS
  340. Codec ID/Info          : Picture based subtitle format used on BDs/HD-DVDs
  341. Duration           : 1 h 29 min
  342. Bit rate           : 68.0 kb/s
  343. Count of elements        : 2578
  344. Stream size          : 43.4 MiB (0%)
  345. Title            : English-COMMENTARY-PGS
  346. Language           : English
  347. Default            : No
  348. Forced           : No
  349. Original source medium       : Blu-ray

  350. Text #11
  351. ID             : 19
  352. ID in the original source medium   : 4775 (0x12A7)
  353. Format           : PGS
  354. Muxing mode          : zlib
  355. Codec ID           : S_HDMV/PGS
  356. Codec ID/Info          : Picture based subtitle format used on BDs/HD-DVDs
  357. Duration           : 1 h 29 min
  358. Bit rate           : 78.2 kb/s
  359. Count of elements        : 3802
  360. Stream size          : 49.8 MiB (0%)
  361. Title            : German-COMMENTARY-PGS
  362. Language           : German
  363. Default            : No
  364. Forced           : No
  365. Original source medium       : Blu-ray

  366. Text #12
  367. ID             : 20
  368. ID in the original source medium   : 4776 (0x12A8)
  369. Format           : PGS
  370. Muxing mode          : zlib
  371. Codec ID           : S_HDMV/PGS
  372. Codec ID/Info          : Picture based subtitle format used on BDs/HD-DVDs
  373. Duration           : 1 h 29 min
  374. Bit rate           : 60.6 kb/s
  375. Count of elements        : 3668
  376. Stream size          : 38.6 MiB (0%)
  377. Title            : French-COMMENTARY-PGS
  378. Language           : French
  379. Default            : No
  380. Forced           : No
  381. Original source medium       : Blu-ray

  382. Text #13
  383. ID             : 21
  384. ID in the original source medium   : 4777 (0x12A9)
  385. Format           : PGS
  386. Muxing mode          : zlib
  387. Codec ID           : S_HDMV/PGS
  388. Codec ID/Info          : Picture based subtitle format used on BDs/HD-DVDs
  389. Duration           : 1 h 28 min
  390. Bit rate           : 66.6 kb/s
  391. Count of elements        : 2558
  392. Stream size          : 42.3 MiB (0%)
  393. Title            : English-COMMENTARY-PGS
  394. Language           : English
  395. Default            : No
  396. Forced           : No
  397. Original source medium       : Blu-ray

  398. Text #14
  399. ID             : 22
  400. ID in the original source medium   : 4778 (0x12AA)
  401. Format           : PGS
  402. Muxing mode          : zlib
  403. Codec ID           : S_HDMV/PGS
  404. Codec ID/Info          : Picture based subtitle format used on BDs/HD-DVDs
  405. Duration           : 1 h 28 min
  406. Bit rate           : 64.9 kb/s
  407. Count of elements        : 3316
  408. Stream size          : 41.3 MiB (0%)
  409. Title            : German-COMMENTARY-PGS
  410. Language           : German
  411. Default            : No
  412. Forced           : No
  413. Original source medium       : Blu-ray

  414. Text #15
  415. ID             : 23
  416. ID in the original source medium   : 4779 (0x12AB)
  417. Format           : PGS
  418. Muxing mode          : zlib
  419. Codec ID           : S_HDMV/PGS
  420. Codec ID/Info          : Picture based subtitle format used on BDs/HD-DVDs
  421. Duration           : 1 h 28 min
  422. Bit rate           : 50.9 kb/s
  423. Count of elements        : 3336
  424. Stream size          : 32.4 MiB (0%)
  425. Title            : French-COMMENTARY-PGS
  426. Language           : French
  427. Default            : No
  428. Forced           : No
  429. Original source medium       : Blu-ray

  430. Menu
  431. 00:00:00.000         : en:Chapter 01
  432. 00:04:54.208         : en:Chapter 02
  433. 00:09:44.916         : en:Chapter 03
  434. 00:16:42.208         : en:Chapter 04
  435. 00:23:50.916         : en:Chapter 05
  436. 00:30:54.541         : en:Chapter 06
  437. 00:41:31.666         : en:Chapter 07
  438. 00:52:25.583         : en:Chapter 08
  439. 00:59:11.333         : en:Chapter 09
  440. 01:07:25.416         : en:Chapter 10
  441. 01:13:39.875         : en:Chapter 11
  442. 01:21:26.500         : en:Chapter 12
复制代码


004616tyn0c07j2c231r30.png

004617py52yhs8y78q8p84.png

004617u4psyff5qpeapriy.png

字幕下载网站---点这里进入
回复

使用道具 举报

您需要登录后才可以回帖 登录 | 立即注册

本版积分规则

QQ|Archiver|手机版|小黑屋|蓝光电影网 ( 滇ICP备18001150号-1 )

GMT+8, 2021-1-23 00:33 , Processed in 0.053641 second(s), 24 queries .

Powered by Discuz! X3.4

Copyright © 2001-2020, Tencent Cloud.

快速回复 返回顶部 返回列表