蓝光电影网

 找回密码
 立即注册

QQ登录

只需一步,快速开始

查看: 47|回复: 0

[10bit.HDR] 纽约王/黑道皇帝 King.of.New.York.1990.2160p.UHD.BluRay.x265.10bit.HDR.DTS-HD.MA.5.1-GUHZER 34.12GB

[复制链接]

已抛锚 成长值: 310

7万

主题

7万

帖子

8万

积分

管理员

Rank: 9Rank: 9Rank: 9

积分
81221
发表于 2021-1-13 00:08:24 | 显示全部楼层 |阅读模式


译  名 纽约王 / 黑道天子
片  名 King of New York
年  代 1990
产  地 意大利 / 美国 / 英国
类  别 剧情 / 惊悚 / 犯罪
语  言 西班牙语 / 英语
上映日期 1991-10-16
IMDb评分7.0/10 from 31025 users
IMDb链接https://www.imdb.com/title/tt0099939
豆瓣评分 6.9/10 from 1346 users
豆瓣链接 https://movie.douban.com/subject/1301768/
片  长 103 分钟
导  演 阿贝尔·费拉拉 Abel Ferrara
编  剧 尼古拉斯·圣约翰 Nicholas St. John
主  演 克里斯托弗·沃肯 Christopher Walken
     大卫·卡罗素 David Caruso
     劳伦斯·菲什伯恩 Laurence Fishburne
     韦斯利·斯奈普斯 Wesley Snipes
     史蒂夫·布西密 Steve Buscemi
     Timothy Stickney
     罗杰·格午埃文·史姑娘 Roger Guenveur Smith
     伦纳德·L·托马斯 Leonard L. Thomas
     拉斯洛·克利马 Laszlo Klima
     菲尔·尼尔森 Phil Neilson
     安丽妮·科祖米 Ariane Koizumi
     Freddie Jackson
     阿隆娜·肖 Alonna Shaw
     Sari Chang
     John Reidy
     Anthony Padilla
     哈罗德·佩里诺 Harold Perrineau
     吉安卡罗·埃斯波西托 Giancarlo Esposito
     Carlos Lauchu
     维克多·阿尔果 Victor Argo
     弗兰克·阿多尼斯 Frank Adonis
     瓦妮萨·安吉尔 Vanessa Angel
     特里萨·兰德尔 Theresa Randle
     Mark Monto
     詹姆斯·洛林兹 James Lorinz
     Janet Julian
     罗伯特·拉萨多 Robert LaSardo
     George G. Colucci
     艾瑞卡·吉姆佩尔 Erica Gimpel
     Lia Chang
     Ernest Abuba
     彼得·哈米尔 Pete Hamill
标  签 黑帮 | 美国 | 犯罪 | 美国电影 | ChristopherWalken | 1990 | 意大利 | Abel_Ferrara
简  介
  工于心计的克里斯托弗·沃尔肯饰演恶名昭彰的纽约大地痞韦佛兰,他在出狱以后要发出他在座牢时落空的毒品市场,跟哥伦比亚帮、意大利帮和华青帮等合作对手展开宣战,逐步建立起比之前更庞大的犯罪王国。但因其不成一世的猖狂态度,也激起了另一帮气派目标不满,因此展开一场黑道大火拼……

  1. Video
  2. ID             : 1
  3. Format           : HEVC
  4. Format/Info          : High Efficiency Video Coding
  5. Format profile         : Main [email]10@L5.1[/email]@High
  6. HDR format           : SMPTE ST 2086, HDR10 compatible
  7. Codec ID           : V_MPEGH/ISO/HEVC
  8. Duration           : 1 h 43 min
  9. Bit rate           : 42.9 Mb/s
  10. Width            : 3 840 pixels
  11. Height           : 2 076 pixels
  12. Display aspect ratio       : 1.85:1
  13. Frame rate mode        : Constant
  14. Frame rate           : 23.976 (24000/1001) FPS
  15. Color space          : YUV
  16. Chroma subsampling       : 4:2:0 (Type 2)
  17. Bit depth          : 10 bits
  18. Bits/(Pixel*Frame)       : 0.225
  19. Stream size          : 30.9 GiB (91%)
  20. Writing library        : x265 3.4+33-606265ac7:[Windows][MSVC 1900][64 bit] 10bit
  21. Encoding settings        : cpuid=1111039 / frame-threads=4 / numa-pools=16 / wpp / no-pmode / no-pme / no-psnr / no-ssim / log-level=2 / input-csp=1 / input-res=3840x2076 / interlace=0 / total-frames=148409 / level-idc=51 / high-tier=1 / uhd-bd=0 / ref=4 / no-allow-non-conformance / repeat-headers / annexb / aud / hrd / info / hash=0 / no-temporal-layers / open-gop / min-keyint=23 / keyint=250 / gop-lookahead=0 / bframes=4 / b-adapt=2 / b-pyramid / bframe-bias=0 / rc-lookahead=25 / lookahead-slices=4 / scenecut=40 / hist-scenecut=0 / radl=0 / no-splice / no-intra-refresh / ctu=64 / min-cu-size=8 / rect / no-amp / max-tu-size=32 / tu-inter-depth=1 / tu-intra-depth=1 / limit-tu=0 / rdoq-level=2 / dynamic-rd=0.00 / no-ssim-rd / signhide / no-tskip / nr-intra=0 / nr-inter=0 / no-constrained-intra / strong-intra-smoothing / max-merge=3 / limit-refs=3 / limit-modes / me=3 / subme=3 / merange=57 / temporal-mvp / no-frame-dup / no-hme / weightp / no-weightb / no-analyze-src-pics / deblock=-3:-3 / no-sao / no-sao-non-deblock / rd=4 / selective-sao=0 / no-early-skip / rskip / no-fast-intra / no-tskip-fast / no-cu-lossless / no-b-intra / no-splitrd-skip / rdpenalty=0 / psy-rd=2.00 / psy-rdoq=1.00 / no-rd-refine / no-lossless / cbqpoffs=0 / crqpoffs=0 / rc=crf / crf=16.0 / qcomp=0.60 / qpstep=4 / stats-write=0 / stats-read=0 / vbv-maxrate=160000 / vbv-bufsize=160000 / vbv-init=0.9 / min-vbv-fullness=50.0 / max-vbv-fullness=80.0 / crf-max=0.0 / crf-min=0.0 / ipratio=1.40 / pbratio=1.30 / aq-mode=2 / aq-strength=1.00 / cutree / zone-count=0 / no-strict-cbr / qg-size=32 / no-rc-grain / qpmax=69 / qpmin=0 / no-const-vbv / sar=1 / overscan=0 / videoformat=5 / range=0 / colorprim=9 / transfer=16 / colormatrix=9 / chromaloc=1 / chromaloc-top=2 / chromaloc-bottom=2 / display-window=0 / master-display=G(8500,39850)B(6550,2300)R(35400,14600)WP(15635,16450)L(10000000,1) / cll=0,0 / min-luma=0 / max-luma=1023 / log2-max-poc-lsb=8 / vui-timing-info / vui-hrd-info / slices=1 / no-opt-qp-pps / no-opt-ref-list-length-pps / no-multi-pass-opt-rps / scenecut-bias=0.05 / hist-threshold=0.03 / no-opt-cu-delta-qp / no-aq-motion / hdr10 / hdr10-opt / no-dhdr10-opt / no-idr-recovery-sei / analysis-reuse-level=0 / analysis-save-reuse-level=0 / analysis-load-reuse-level=0 / scale-factor=0 / refine-intra=0 / refine-inter=0 / refine-mv=1 / refine-ctu-distortion=0 / no-limit-sao / ctu-info=0 / no-lowpass-dct / refine-analysis-type=0 / copy-pic=1 / max-ausize-factor=1.0 / no-dynamic-refine / no-single-sei / no-hevc-aq / no-svt / no-field / qp-adaptation-range=1.00 / scenecut-aware-qp=0conformance-window-offsets / right=0 / bottom=0 / decoder-max-rate=0 / no-vbv-live-multi-pass
  22. Default            : Yes
  23. Forced           : No
  24. Color range          : Limited
  25. Color primaries        : BT.2020
  26. Transfer characteristics     : PQ
  27. Matrix coefficients        : BT.2020 non-constant
  28. Mastering display color primaries  : BT.2020
  29. Mastering display luminance    : min: 0.0001 cd/m2, max: 1000 cd/m2
  30. Audio #1
  31. ID             : 2
  32. Format           : DTS XLL
  33. Format/Info          : Digital Theater Systems
  34. Commercial name        : DTS-HD Master Audio
  35. Codec ID           : A_DTS
  36. Duration           : 1 h 43 min
  37. Bit rate mode          : Variable
  38. Bit rate           : 4 071 kb/s
  39. Channel(s)           : 6 channels
  40. Channel layout         : C L R Ls Rs LFE
  41. Sampling rate          : 48.0 kHz
  42. Frame rate           : 93.750 FPS (512 SPF)
  43. Bit depth          : 24 bits
  44. Compression mode         : Lossless
  45. Stream size          : 2.93 GiB (9%)
  46. Language           : English
  47. Default            : Yes
  48. Forced           : No
  49. Audio #2
  50. ID             : 3
  51. Format           : AAC LC
  52. Format/Info          : Advanced Audio Codec Low Complexity
  53. Codec ID           : A_AAC-2
  54. Duration           : 1 h 43 min
  55. Bit rate           : 114 kb/s
  56. Channel(s)           : 2 channels
  57. Channel layout         : L R
  58. Sampling rate          : 48.0 kHz
  59. Frame rate           : 46.875 FPS (1024 SPF)
  60. Compression mode         : Lossy
  61. Delay relative to video      : 20 ms
  62. Stream size          : 84.1 MiB (0%)
  63. Title            : Commentary
  64. Language           : English
  65. Default            : No
  66. Forced           : No
  67. Audio #3
  68. ID             : 4
  69. Format           : AAC LC
  70. Format/Info          : Advanced Audio Codec Low Complexity
  71. Codec ID           : A_AAC-2
  72. Duration           : 1 h 43 min
  73. Bit rate           : 121 kb/s
  74. Channel(s)           : 2 channels
  75. Channel layout         : L R
  76. Sampling rate          : 48.0 kHz
  77. Frame rate           : 46.875 FPS (1024 SPF)
  78. Compression mode         : Lossy
  79. Delay relative to video      : 20 ms
  80. Stream size          : 89.3 MiB (0%)
  81. Title            : Commentary
  82. Language           : English
  83. Default            : No
  84. Forced           : No
  85. Text
  86. ID             : 5
  87. Format           : PGS
  88. Muxing mode          : zlib
  89. Codec ID           : S_HDMV/PGS
  90. Codec ID/Info          : Picture based subtitle format used on BDs/HD-DVDs
  91. Duration           : 1 h 42 min
  92. Bit rate           : 32.5 kb/s
  93. Count of elements        : 2186
  94. Stream size          : 23.8 MiB (0%)
  95. Title            : SDH
  96. Language           : English
  97. Default            : No
  98. Forced           : No
  99. Menu
  100. 00:00:00.000         : :Chapter 01
  101. 00:08:22.627         : :Chapter 02
  102. 00:18:27.398         : :Chapter 03
  103. 00:25:56.930         : :Chapter 04
  104. 00:34:39.995         : :Chapter 05
  105. 00:42:58.743         : :Chapter 06
  106. 00:51:27.668         : :Chapter 07
  107. 00:59:58.136         : :Chapter 08
  108. 01:08:33.651         : :Chapter 09
  109. 01:20:29.658         : :Chapter 10
  110. 01:30:08.987         : :Chapter 11
  111. 01:35:14.125         : :Chapter 12
复制代码









字幕下载网站---点这里进入
回复

使用道具 举报

您需要登录后才可以回帖 登录 | 立即注册

本版积分规则

QQ|Archiver|手机版|小黑屋|蓝光电影网 ( 滇ICP备18001150号-1 )

GMT+8, 2021-1-24 01:37 , Processed in 0.051122 second(s), 24 queries .

Powered by Discuz! X3.4

Copyright © 2001-2020, Tencent Cloud.

快速回复 返回顶部 返回列表