蓝光电影网

 找回密码
 立即注册

QQ登录

只需一步,快速开始

查看: 46|回复: 0

[REMUX.HEVC] 叶问2:宗师传奇/叶问2 Ip.Man.2.2010.CHINESE.2160p.BluRay.REMUX.HEVC.DTS-HD.MA.TrueHD.7.1.Atmos-FGT 53.45GB

[复制链接]

已抛锚 成长值: 310

7万

主题

7万

帖子

8万

积分

管理员

Rank: 9Rank: 9Rank: 9

积分
81221
发表于 2021-1-13 00:09:10 | 显示全部楼层 |阅读模式


译  名 Ip Man 2 / Yip Man 2 / 叶问2
片  名 叶问2:宗师传奇
年  代 2010
产  地 中国大陆 / 中国香港
类  别 行动 / 列传 / 历史
语  言 粤语 / 汉语普通话 / 英语
上映日期 2010-04-27(中国大陆)
IMDb评分7.5/10 from 96771 users
IMDb链接https://www.imdb.com/title/tt1386932
豆瓣评分 7.3/10 from 214518 users
豆瓣链接 https://movie.douban.com/subject/3578981/
片  长 108分钟
导  演 叶伟信 Wilson Yip
编  剧 黄子桓 Edmond Wong / 陈大利 Tai-lee Chan
主  演 甄子丹 Donnie Yen
     洪金宝 Sammo Hung Kam-Bo
     熊黛林 Lynn Hung
     黄晓明 Xiaoming Huang
     樊少皇 Siu-Wong Fan
     郑则仕 Kent Cheng
     敖嘉年 Kanin Ngo
     杜宇航 Yu-Hang To
     达伦·萨赫拉维 Darren Shahlavi
     释小龙 Siu Lung Sik
     任达华 Simon Yam
     郑家星 Carlson Cheng Ka-Sing
     陆梅芳 Meifang Lu
     陈浩 Hao Chen
     李泽 Ze Li
     罗莽 Meng Lo
     冯克安 Hark-On Fung
     黄子桓 Edmond Wong
     Charles Mayer
     布伟杰 Brian Thomas Burrell
标  签 行动 | 香港 | 功夫 | 2010 | 列传 | 武侠 | 剧情 | 励志
简  介
  叶问(甄子丹 饰)携家属来到香港,艰难过活。叶问开武馆宣扬咏春拳术,但置之不理。某日,黄梁(黄晓明 饰)登门造访,交锋以后,情愿携一班兄弟,拜在叶问门下。黄梁因故与洪拳门下打斗,成果被捉。叶问来救,却巧遇昔日对手金山找(樊少皇 饰),两人冰释前嫌,却不想被洪拳掌门洪震南(洪金宝 饰)拦下,以致众人被差人(郑则仕 饰)逮捕。洪震南提醒叶问,欲在香港开武馆,必须接管各大门派应战。因而叶问单人独马,终极与洪震南对决,不分昆季,叶问因拒绝交纳会费,而遭到洪门挑衅惹事,以致武馆被关。背后里,洪震南替英国差人筹划华洋角逐,但始终未有报答,深感不服。拳击冠军龙卷风来到中国,在角逐现场中欺侮中国武术,打伤中国拳师。洪震南挺身而住,血溅现场。为了中国武术的声誉,叶问接管了龙卷风的搬弄,为民族大义而战……
获奖情况
  第47届台北金马影展(2010)
  金马奖 最好行动设想 洪金宝
  第30届香港电影金像奖(2011)
  最好电影(提名)
  最好导演(提名) 叶伟信
  最好新演员(提名) 杜宇航
  最好摄影(提名) 潘恒生
  最好剪接 张嘉辉
  最好美术指导(提名) 麦国强
  最好行动设想 洪金宝
  最好原创电影音乐(提名) 川井宪次
  最好声响结果(提名) 李耀强 / 曾景祥
  最好视觉结果(提名) 黄智亨
  第14届中国电影华表奖(2011)
  优异合拍片奖(提名)
  第5届亚洲电影大奖(2011)
  最好男配角 洪金宝
  第17届北京大门生电影节(2010)
  最好观赏结果奖(提名)
  最受大门生接待导演 叶伟信
  第1届豆瓣电影鑫像奖(2011)
  豆渣单元 最渣男演员(华语) 黄晓明

  1. Video
  2. ID             : 1
  3. ID in the original source medium   : 4113 (0x1011)
  4. Format           : HEVC
  5. Format/Info          : High Efficiency Video Coding
  6. Format profile         : Main [email]10@L5.1[/email]@High
  7. HDR format           : SMPTE ST 2086, HDR10 compatible
  8. Codec ID           : V_MPEGH/ISO/HEVC
  9. Duration           : 1 h 48 min
  10. Bit rate           : 52.5 Mb/s
  11. Width            : 3 840 pixels
  12. Height           : 2 160 pixels
  13. Display aspect ratio       : 16:9
  14. Frame rate mode        : Constant
  15. Frame rate           : 24.000 FPS
  16. Color space          : YUV
  17. Chroma subsampling       : 4:2:0 (Type 2)
  18. Bit depth          : 10 bits
  19. Bits/(Pixel*Frame)       : 0.264
  20. Stream size          : 39.7 GiB (74%)
  21. Language           : English
  22. Default            : No
  23. Forced           : No
  24. Color range          : Limited
  25. Color primaries        : BT.2020
  26. Transfer characteristics     : PQ
  27. Matrix coefficients        : BT.2020 non-constant
  28. Mastering display color primaries  : BT.2020
  29. Mastering display luminance    : min: 0.0001 cd/m2, max: 1000 cd/m2
  30. Maximum Content Light Level    : 399 cd/m2
  31. Maximum Frame-Average Light Level  : 261 cd/m2
  32. Original source medium       : Blu-ray
  33. Audio #1
  34. ID             : 2
  35. ID in the original source medium   : 4352 (0x1100)
  36. Format           : MLP FBA 16-ch
  37. Format/Info          : Meridian Lossless Packing FBA with 16-channel presentation
  38. Commercial name        : Dolby TrueHD with Dolby Atmos
  39. Codec ID           : A_TRUEHD
  40. Duration           : 1 h 48 min
  41. Bit rate mode          : Variable
  42. Bit rate           : 5 000 kb/s
  43. Maximum bit rate         : 7 242 kb/s
  44. Channel(s)           : 8 channels
  45. Channel layout         : L R C LFE Ls Rs Lb Rb
  46. Sampling rate          : 48.0 kHz
  47. Frame rate           : 1 200.000 FPS (40 SPF)
  48. Compression mode         : Lossless
  49. Stream size          : 3.78 GiB (7%)
  50. Title            : TrueHD 7.1 Atmos
  51. Language           : Chinese
  52. Default            : Yes
  53. Forced           : No
  54. Original source medium       : Blu-ray
  55. Number of dynamic objects      : 11
  56. Bed channel count        : 1 channel
  57. Bed channel configuration      : LFE
  58. Audio #2
  59. ID             : 3
  60. Format           : DTS XLL
  61. Format/Info          : Digital Theater Systems
  62. Commercial name        : DTS-HD Master Audio
  63. Codec ID           : A_DTS
  64. Duration           : 1 h 48 min
  65. Bit rate mode          : Variable
  66. Bit rate           : 4 620 kb/s
  67. Channel(s)           : 8 channels
  68. Channel layout         : C L R LFE Lb Rb Lss Rss
  69. Sampling rate          : 48.0 kHz
  70. Frame rate           : 93.750 FPS (512 SPF)
  71. Bit depth          : 24 bits
  72. Compression mode         : Lossless
  73. Stream size          : 3.49 GiB (7%)
  74. Title            : DTS-HD MA 7.1
  75. Language           : Chinese
  76. Default            : No
  77. Forced           : No
  78. Audio #3
  79. ID             : 4
  80. ID in the original source medium   : 4352 (0x1100)
  81. Format           : AC-3
  82. Format/Info          : Audio Coding 3
  83. Commercial name        : Dolby Digital
  84. Codec ID           : A_AC3
  85. Duration           : 1 h 48 min
  86. Bit rate mode          : Constant
  87. Bit rate           : 640 kb/s
  88. Channel(s)           : 6 channels
  89. Channel layout         : L R C LFE Ls Rs
  90. Sampling rate          : 48.0 kHz
  91. Frame rate           : 31.250 FPS (1536 SPF)
  92. Compression mode         : Lossy
  93. Stream size          : 495 MiB (1%)
  94. Title            : DD 5.1
  95. Language           : Chinese
  96. Service kind         : Complete Main
  97. Default            : No
  98. Forced           : No
  99. Original source medium       : Blu-ray
  100. Audio #4
  101. ID             : 5
  102. ID in the original source medium   : 4353 (0x1101)
  103. Format           : DTS XLL
  104. Format/Info          : Digital Theater Systems
  105. Commercial name        : DTS-HD Master Audio
  106. Codec ID           : A_DTS
  107. Duration           : 1 h 48 min
  108. Bit rate mode          : Variable
  109. Bit rate           : 2 432 kb/s
  110. Channel(s)           : 6 channels
  111. Channel layout         : C L R Ls Rs LFE
  112. Sampling rate          : 48.0 kHz
  113. Frame rate           : 93.750 FPS (512 SPF)
  114. Bit depth          : 16 bits
  115. Compression mode         : Lossless
  116. Stream size          : 1.84 GiB (3%)
  117. Title            : DTS-HD MA 5.1
  118. Language           : Chinese
  119. Default            : No
  120. Forced           : No
  121. Original source medium       : Blu-ray
  122. Audio #5
  123. ID             : 6
  124. ID in the original source medium   : 4354 (0x1102)
  125. Format           : DTS XLL
  126. Format/Info          : Digital Theater Systems
  127. Commercial name        : DTS-HD Master Audio
  128. Codec ID           : A_DTS
  129. Duration           : 1 h 48 min
  130. Bit rate mode          : Variable
  131. Bit rate           : 2 395 kb/s
  132. Channel(s)           : 6 channels
  133. Channel layout         : C L R Ls Rs LFE
  134. Sampling rate          : 48.0 kHz
  135. Frame rate           : 93.750 FPS (512 SPF)
  136. Bit depth          : 16 bits
  137. Compression mode         : Lossless
  138. Stream size          : 1.81 GiB (3%)
  139. Title            : DTS-HD MA 5.1
  140. Language           : English
  141. Default            : No
  142. Forced           : No
  143. Original source medium       : Blu-ray
  144. Audio #6
  145. ID             : 7
  146. Format           : AC-3
  147. Format/Info          : Audio Coding 3
  148. Commercial name        : Dolby Digital
  149. Codec ID           : A_AC3
  150. Duration           : 1 h 48 min
  151. Bit rate mode          : Constant
  152. Bit rate           : 640 kb/s
  153. Channel(s)           : 6 channels
  154. Channel layout         : L R C LFE Ls Rs
  155. Sampling rate          : 48.0 kHz
  156. Frame rate           : 31.250 FPS (1536 SPF)
  157. Compression mode         : Lossy
  158. Stream size          : 495 MiB (1%)
  159. Title            : DD 5.1
  160. Language           : English
  161. Service kind         : Complete Main
  162. Default            : No
  163. Forced           : No
  164. Audio #7
  165. ID             : 8
  166. ID in the original source medium   : 4355 (0x1103)
  167. Format           : DTS XLL
  168. Format/Info          : Digital Theater Systems
  169. Commercial name        : DTS-HD Master Audio
  170. Codec ID           : A_DTS
  171. Duration           : 1 h 48 min
  172. Bit rate mode          : Variable
  173. Bit rate           : 2 411 kb/s
  174. Channel(s)           : 6 channels
  175. Channel layout         : C L R Ls Rs LFE
  176. Sampling rate          : 48.0 kHz
  177. Frame rate           : 93.750 FPS (512 SPF)
  178. Bit depth          : 16 bits
  179. Compression mode         : Lossless
  180. Stream size          : 1.82 GiB (3%)
  181. Title            : DD 5.1
  182. Language           : Spanish
  183. Default            : No
  184. Forced           : No
  185. Original source medium       : Blu-ray
  186. Text #1
  187. ID             : 9
  188. Format           : UTF-8
  189. Codec ID           : S_TEXT/UTF8
  190. Codec ID/Info          : UTF-8 Plain Text
  191. Duration           : 1 h 44 min
  192. Bit rate           : 31 b/s
  193. Count of elements        : 970
  194. Stream size          : 24.4 KiB (0%)
  195. Title            : English-SRT
  196. Language           : English
  197. Default            : Yes
  198. Forced           : No
  199. Text #2
  200. ID             : 10
  201. ID in the original source medium   : 4768 (0x12A0)
  202. Format           : PGS
  203. Muxing mode          : zlib
  204. Codec ID           : S_HDMV/PGS
  205. Codec ID/Info          : Picture based subtitle format used on BDs/HD-DVDs
  206. Duration           : 1 h 44 min
  207. Bit rate           : 24.4 kb/s
  208. Count of elements        : 1929
  209. Stream size          : 18.2 MiB (0%)
  210. Title            : English-PGS
  211. Language           : English
  212. Default            : No
  213. Forced           : No
  214. Original source medium       : Blu-ray
  215. Text #3
  216. ID             : 11
  217. ID in the original source medium   : 4768 (0x12A0)
  218. Format           : PGS
  219. Muxing mode          : zlib
  220. Codec ID           : S_HDMV/PGS
  221. Codec ID/Info          : Picture based subtitle format used on BDs/HD-DVDs
  222. Duration           : 1 h 44 min
  223. Bit rate           : 1 365 b/s
  224. Count of elements        : 78
  225. Stream size          : 1.02 MiB (0%)
  226. Title            : English For Dub-PGS
  227. Language           : English
  228. Default            : No
  229. Forced           : No
  230. Original source medium       : Blu-ray
  231. Text #4
  232. ID             : 12
  233. ID in the original source medium   : 4769 (0x12A1)
  234. Format           : PGS
  235. Muxing mode          : zlib
  236. Codec ID           : S_HDMV/PGS
  237. Codec ID/Info          : Picture based subtitle format used on BDs/HD-DVDs
  238. Duration           : 1 h 44 min
  239. Bit rate           : 33.5 kb/s
  240. Count of elements        : 2202
  241. Stream size          : 24.9 MiB (0%)
  242. Title            : Spanish-PGS
  243. Language           : Spanish
  244. Default            : No
  245. Forced           : No
  246. Original source medium       : Blu-ray
  247. Menu
  248. 00:00:00.000         : en:Chapter 01
  249. 00:09:28.000         : en:Chapter 02
  250. 00:13:52.000         : en:Chapter 03
  251. 00:19:08.000         : en:Chapter 04
  252. 00:29:25.000         : en:Chapter 05
  253. 00:36:25.000         : en:Chapter 06
  254. 00:46:46.000         : en:Chapter 07
  255. 01:01:40.000         : en:Chapter 08
  256. 01:16:01.000         : en:Chapter 09
  257. 01:19:54.000         : en:Chapter 10
  258. 01:27:01.000         : en:Chapter 11
  259. 01:44:58.000         : en:Chapter 12
复制代码










字幕下载网站---点这里进入
回复

使用道具 举报

您需要登录后才可以回帖 登录 | 立即注册

本版积分规则

QQ|Archiver|手机版|小黑屋|蓝光电影网 ( 滇ICP备18001150号-1 )

GMT+8, 2021-1-24 01:20 , Processed in 0.050233 second(s), 24 queries .

Powered by Discuz! X3.4

Copyright © 2001-2020, Tencent Cloud.

快速回复 返回顶部 返回列表