蓝光电影网

 找回密码
 立即注册

QQ登录

只需一步,快速开始

查看: 57|回复: 0

[REMUX.HEVC] 波西米亚狂想曲[中字].Bohemian.Rhapsody.2018.2160p.BluRay.REMUX.HEVC.DTS-HD.MA.TrueHD.7.1.Atmos-FGT 51.28GB

[复制链接]

已抛锚 成长值: 310

7万

主题

7万

帖子

8万

积分

管理员

Rank: 9Rank: 9Rank: 9

积分
81221
发表于 2021-1-13 00:09:38 | 显示全部楼层 |阅读模式
[自带官方中字]



译  名 波西米亚狂想曲 / 波希米亚狂想曲(台) / 波希米亚狂想曲:摇滚传闻(港)
片  名 Bohemian Rhapsody
年  代 2018
产  地 英国 / 美国
类  别 剧情 / 音乐 / 列传
语  言 英语
上映日期 2018-11-02(美国)
IMDb评分 8.2/10 from 215361 users
IMDb链接 http://www.imdb.com/title/tt1727824
豆瓣评分 8.8/10 from 38146 users
豆瓣链接 https://movie.douban.com/subject/5300054/
片  长 135分钟
导  演 布莱恩·辛格 Bryan Singer
编  剧 安东尼·麦卡滕 Anthony McCarten / 皮特·摩根 Peter Morgan
主  演 拉米·马雷克 Rami Malek
      本·哈迪 Ben Hardy
      约瑟夫·梅泽罗 Joseph Mazzello
      格威利姆·李 Gwilym Lee
      艾伦·里奇 Allen Leech
      露西·宝通 Lucy Boynton
      艾丹·吉伦 Aidan Gillen
      汤姆·霍兰德 Tom Hollander
      麦克·梅尔斯 Mike Myers
      阿隆·麦克卡斯克 Aaron McCusker
      梅内卡·达斯 Meneka Das
      迪基·博 Dickie Beau
      蒂姆· 普莱斯特 Tim Plester
      杰克·罗思 Jack Roth
      马克斯·班内特 Max Bennett
      基兰·哈德卡斯托 Kieran Hardcastle
      罗斯·格林 Ross Green
      布鲁斯·麦克金伦 Bruce Mackinnon
      米歇尔·邓肯 Michelle Duncan
      马特·格林伍德 Matt Greenwood
      罗茜·本杰明 Rosy Benjamin
      约翰·奥特曼 John Ottman
      詹姆斯·华莱士 James Wallace
      文森特·阿德里安 Vincent Andriano
      拉斯科·阿特金斯 Lasco Atkins
      乔纳森·奇塔姆 Jonathan Cheetham
      迈克尔·科布 Michael Cobb
      耶稣·加洛 Jesús Gallo
      亚当·兰伯特 Adam Lambert
      豪尔赫·莱昂·马丁内斯 Jorge Leon Martinez
      杰森· 莱恩斯 Jason Lines
      伊斯雷尔·鲁兹 Israel Ruiz



标  签 列传 | 音乐 | 摇滚 | queen | 英国 | 美国 | 2018 | 同性


简  介


  本片是一部2018年美国列传歌舞片,由布莱恩·辛格执导,安东尼·麦卡滕编剧。其剧情首要描写皇后乐队和主唱弗雷迪·默丘里在业界打滚的十五年间,以及他们于1985年在拯救生射中的表演。由拉米·马雷克饰演默丘里,并与露西·波顿、格威林·李、班·哈迪、约瑟夫·马杰罗、艾丹·吉伦、汤姆·赫兰德和迈克·梅尔斯配合担任主演。


获奖情况


  第91届奥斯卡金像奖(2019)
  最好影片(提名)
  最好男配角(提名) 拉米·马雷克
  最好剪辑(提名) 约翰·奥特曼
  最好混音(提名) 保罗·马瑟 / 蒂姆·卡弗金 / 约翰·卡萨利
  最好音效剪辑(提名) 妮娜·哈特斯通 / 约翰·沃赫斯特


  第76届金球奖(2019)
  电影类 最好剧情片
  电影类 剧情片最好男配角 拉米·马雷克


  第72届英国电影学院奖(2019)
  电影奖 最好英国影片(提名)
  电影奖 最好男配角(提名) 拉米·马雷克
  电影奖 最好摄影(提名) 纽顿·托马斯·西格尔
  电影奖 最好剪辑(提名) 约翰·奥特曼
  电影奖 最好化装/发型(提名) 马克·凯奥耶 / 简·塞维尔
  电影奖 最好打扮设想(提名) 朱利安·戴
  电影奖 最好音效(提名)


  第42届日本电影学院奖(2019)
  最好外语片(提名)


  第61届日本电影蓝丝带奖(2019)
  最好本国影片
  年度十佳外洋影片


  第25届美国演员工会奖(2019)
  电影奖 最好男配角 拉米·马雷克
  电影奖 最好群戏(提名)


  第30届美国制片野生会奖(2019)
  最好电影制片人奖(提名)


  第69届美国剪辑工会奖(2019)
  剧情片最好剪辑(提名) 约翰·奥特曼


  第23届美国艺术指导工会奖(2019)
  电影奖 最好历史电影艺术指导(提名) 亚伦·海耶


  第21届美国打扮设想工会奖(2019)
  年月电影最好打扮设想(提名) 朱利安·戴


  第6届美国化装及发型设想工会奖(2019)
  电影类最好年月戏化装(提名)
  电影类最好年月戏发型设想(提名)


  第66届美国音效剪辑协会奖(2019)
  金卷轴奖 最好电影对白剪辑(提名)
  金卷轴奖 最好音乐片音乐剪辑(提名)


  第17届美国视觉结果协会奖(2019)
  最好电影帮助视觉结果(提名)


  第55届美国声音结果协会奖(2019)
  真人电影最好音效(提名)


  第24届美国批评家挑选电影奖(2019)
  最好男配角(提名) 拉米·马雷克
  最好打扮设想(提名)
  最好发型化装(提名)


  第23届金卫星奖(2019)
  电影部分 笑剧/音乐片最好男配角 拉米·马雷克


  第17届华盛顿影评人协会奖(2018)
  最好男配角(提名) 拉米·马雷克


  第31届芝加哥影评人协会奖(2018)
  最好男配角(提名) 拉米·马雷克


  第17届旧金山影评人协会奖(2018)
  最好男配角(提名) 拉米·马雷克


  第5届豆瓣电影年度榜单(2018)
  年度电影原声


  1. Video
  2. ID : 1
  3. Format : HEVC
  4. Format/Info : High Efficiency Video Coding
  5. Commercial name : HDR10
  6. Format profile : Main High@L4@High
  7. Codec ID : V_MPEGH/ISO/HEVC
  8. Duration : 2 h 14 min
  9. Bit rate : 37.2 Mb/s
  10. Width : 3 840 pixels
  11. Height : 2 160 pixels
  12. Display aspect ratio : 16:9
  13. Frame rate mode : Constant
  14. Frame rate : 23.976 (24000/1001) FPS
  15. Color space : YUV
  16. Chroma subsampling : 4:2:0 (Type 2)
  17. Bit depth : 10 bits
  18. Bits/(Pixel*Frame) : 0.187
  19. Stream size : 35.0 GiB (68%)
  20. Title : Bohemian.Rhapsody.2018.2160p.BluRay.REMUX.HEVC.DTS-HD.MA.TrueHD.7.1.Atmos-FGT
  21. Default : Yes
  22. Forced : No
  23. Color range : Limited
  24. Color primaries : BT.2020
  25. Transfer characteristics : PQ
  26. Matrix coefficients : BT.2020 non-constant
  27. Mastering display color primaries : Display P3
  28. Mastering display luminance : min: 0.0050 cd/m2, max: 1000 cd/m2

  29. Audio #1
  30. ID : 2
  31. Format : MLP FBA 16-ch
  32. Format/Info : Meridian Lossless Packing FBA with 16-channel presentation
  33. Commercial name : Dolby TrueHD with Dolby Atmos
  34. Codec ID : A_TRUEHD
  35. Duration : 2 h 14 min
  36. Bit rate mode : Variable
  37. Bit rate : 4 611 kb/s
  38. Maximum bit rate : 8 277 kb/s
  39. Channel(s) : 8 channels
  40. Channel layout : L R C LFE Ls Rs Lb Rb
  41. Sampling rate : 48.0 kHz
  42. Frame rate : 1 200.000 FPS (40 SPF)
  43. Compression mode : Lossless
  44. Stream size : 4.34 GiB (8%)
  45. Title : Bohemian.Rhapsody.2018.2160p.BluRay.REMUX.HEVC.DTS-HD.MA.TrueHD.7.1.Atmos-FGT
  46. Language : English
  47. Default : Yes
  48. Forced : No
  49. Number of dynamic objects : 13
  50. Bed channel count : 1 channel
  51. Bed channel configuration : LFE

  52. Audio #2
  53. ID : 3
  54. Format : DTS XLL
  55. Format/Info : Digital Theater Systems
  56. Commercial name : DTS-HD Master Audio
  57. Codec ID : A_DTS
  58. Duration : 2 h 14 min
  59. Bit rate mode : Variable
  60. Bit rate : 4 142 kb/s
  61. Channel(s) : 8 channels
  62. Channel layout : C L R LFE Lb Rb Lss Rss
  63. Sampling rate : 48.0 kHz
  64. Frame rate : 93.750 FPS (512 SPF)
  65. Bit depth : 24 bits
  66. Compression mode : Lossless
  67. Delay relative to video : -27 ms
  68. Stream size : 3.89 GiB (8%)
  69. Title : Bohemian.Rhapsody.2018.2160p.BluRay.REMUX.HEVC.DTS-HD.MA.TrueHD.7.1.Atmos-FGT
  70. Language : English
  71. Default : No
  72. Forced : No

  73. Audio #3
  74. ID : 4
  75. Format : AC-3
  76. Format/Info : Audio Coding 3
  77. Commercial name : Dolby Digital
  78. Codec ID : A_AC3
  79. Duration : 2 h 14 min
  80. Bit rate mode : Constant
  81. Bit rate : 640 kb/s
  82. Channel(s) : 6 channels
  83. Channel layout : L R C LFE Ls Rs
  84. Sampling rate : 48.0 kHz
  85. Frame rate : 31.250 FPS (1536 SPF)
  86. Bit depth : 16 bits
  87. Compression mode : Lossy
  88. Stream size : 616 MiB (1%)
  89. Title : Bohemian.Rhapsody.2018.2160p.BluRay.REMUX.HEVC.DTS-HD.MA.TrueHD.7.1.Atmos-FGT
  90. Language : English
  91. Service kind : Complete Main
  92. Default : No
  93. Forced : No

  94. Audio #4
  95. ID : 5
  96. Format : DTS XLL
  97. Format/Info : Digital Theater Systems
  98. Commercial name : DTS-HD Master Audio
  99. Codec ID : A_DTS
  100. Duration : 2 h 14 min
  101. Bit rate mode : Variable
  102. Bit rate : 2 058 kb/s
  103. Channel(s) : 2 channels
  104. Channel layout : L R
  105. Sampling rate : 48.0 kHz
  106. Frame rate : 93.750 FPS (512 SPF)
  107. Bit depth : 24 bits
  108. Compression mode : Lossless
  109. Stream size : 1.93 GiB (4%)
  110. Title : Bohemian.Rhapsody.2018.2160p.BluRay.REMUX.HEVC.DTS-HD.MA.TrueHD.7.1.Atmos-FGT
  111. Language : English
  112. Default : No
  113. Forced : No

  114. Audio #5
  115. ID : 6
  116. Format : AC-3
  117. Format/Info : Audio Coding 3
  118. Commercial name : Dolby Digital
  119. Codec ID : A_AC3
  120. Duration : 2 h 14 min
  121. Bit rate mode : Constant
  122. Bit rate : 448 kb/s
  123. Channel(s) : 6 channels
  124. Channel layout : L R C LFE Ls Rs
  125. Sampling rate : 48.0 kHz
  126. Frame rate : 31.250 FPS (1536 SPF)
  127. Bit depth : 16 bits
  128. Compression mode : Lossy
  129. Delay relative to video : 5 ms
  130. Stream size : 431 MiB (1%)
  131. Title : Bohemian.Rhapsody.2018.2160p.BluRay.REMUX.HEVC.DTS-HD.MA.TrueHD.7.1.Atmos-FGT
  132. Language : English
  133. Service kind : Complete Main
  134. Default : No
  135. Forced : No

  136. Audio #6
  137. ID : 7
  138. Format : AC-3
  139. Format/Info : Audio Coding 3
  140. Commercial name : Dolby Digital
  141. Codec ID : A_AC3
  142. Duration : 2 h 14 min
  143. Bit rate mode : Constant
  144. Bit rate : 448 kb/s
  145. Channel(s) : 6 channels
  146. Channel layout : L R C LFE Ls Rs
  147. Sampling rate : 48.0 kHz
  148. Frame rate : 31.250 FPS (1536 SPF)
  149. Bit depth : 16 bits
  150. Compression mode : Lossy
  151. Delay relative to video : 5 ms
  152. Stream size : 431 MiB (1%)
  153. Title : Bohemian.Rhapsody.2018.2160p.BluRay.REMUX.HEVC.DTS-HD.MA.TrueHD.7.1.Atmos-FGT
  154. Language : Czech
  155. Service kind : Complete Main
  156. Default : No
  157. Forced : No

  158. Audio #7
  159. ID : 8
  160. Format : AC-3
  161. Format/Info : Audio Coding 3
  162. Commercial name : Dolby Digital
  163. Codec ID : A_AC3
  164. Duration : 2 h 14 min
  165. Bit rate mode : Constant
  166. Bit rate : 448 kb/s
  167. Channel(s) : 6 channels
  168. Channel layout : L R C LFE Ls Rs
  169. Sampling rate : 48.0 kHz
  170. Frame rate : 31.250 FPS (1536 SPF)
  171. Bit depth : 16 bits
  172. Compression mode : Lossy
  173. Delay relative to video : 5 ms
  174. Stream size : 431 MiB (1%)
  175. Title : Bohemian.Rhapsody.2018.2160p.BluRay.REMUX.HEVC.DTS-HD.MA.TrueHD.7.1.Atmos-FGT
  176. Language : Polish
  177. Service kind : Complete Main
  178. Default : No
  179. Forced : No

  180. Audio #8
  181. ID : 9
  182. Format : AC-3
  183. Format/Info : Audio Coding 3
  184. Commercial name : Dolby Digital
  185. Codec ID : A_AC3
  186. Duration : 2 h 14 min
  187. Bit rate mode : Constant
  188. Bit rate : 448 kb/s
  189. Channel(s) : 6 channels
  190. Channel layout : L R C LFE Ls Rs
  191. Sampling rate : 48.0 kHz
  192. Frame rate : 31.250 FPS (1536 SPF)
  193. Bit depth : 16 bits
  194. Compression mode : Lossy
  195. Delay relative to video : 5 ms
  196. Stream size : 431 MiB (1%)
  197. Title : Bohemian.Rhapsody.2018.2160p.BluRay.REMUX.HEVC.DTS-HD.MA.TrueHD.7.1.Atmos-FGT
  198. Language : Spanish
  199. Service kind : Complete Main
  200. Default : No
  201. Forced : No

  202. Audio #9
  203. ID : 10
  204. Format : DTS
  205. Format/Info : Digital Theater Systems
  206. Codec ID : A_DTS
  207. Duration : 2 h 14 min
  208. Bit rate mode : Constant
  209. Bit rate : 768 kb/s
  210. Channel(s) : 6 channels
  211. Channel layout : C L R Ls Rs LFE
  212. Sampling rate : 48.0 kHz
  213. Frame rate : 93.750 FPS (512 SPF)
  214. Bit depth : 24 bits
  215. Compression mode : Lossy
  216. Stream size : 739 MiB (1%)
  217. Title : Bohemian.Rhapsody.2018.2160p.BluRay.REMUX.HEVC.DTS-HD.MA.TrueHD.7.1.Atmos-FGT
  218. Language : Japanese
  219. Default : No
  220. Forced : No

  221. Audio #10
  222. ID : 11
  223. Format : DTS
  224. Format/Info : Digital Theater Systems
  225. Codec ID : A_DTS
  226. Duration : 2 h 14 min
  227. Bit rate mode : Constant
  228. Bit rate : 768 kb/s
  229. Channel(s) : 6 channels
  230. Channel layout : C L R Ls Rs LFE
  231. Sampling rate : 48.0 kHz
  232. Frame rate : 93.750 FPS (512 SPF)
  233. Bit depth : 24 bits
  234. Compression mode : Lossy
  235. Stream size : 739 MiB (1%)
  236. Title : Bohemian.Rhapsody.2018.2160p.BluRay.REMUX.HEVC.DTS-HD.MA.TrueHD.7.1.Atmos-FGT
  237. Language : French
  238. Default : No
  239. Forced : No

  240. Audio #11
  241. ID : 12
  242. Format : DTS
  243. Format/Info : Digital Theater Systems
  244. Codec ID : A_DTS
  245. Duration : 2 h 14 min
  246. Bit rate mode : Constant
  247. Bit rate : 768 kb/s
  248. Channel(s) : 6 channels
  249. Channel layout : C L R Ls Rs LFE
  250. Sampling rate : 48.0 kHz
  251. Frame rate : 93.750 FPS (512 SPF)
  252. Bit depth : 24 bits
  253. Compression mode : Lossy
  254. Stream size : 739 MiB (1%)
  255. Title : Bohemian.Rhapsody.2018.2160p.BluRay.REMUX.HEVC.DTS-HD.MA.TrueHD.7.1.Atmos-FGT
  256. Language : Spanish
  257. Default : No
  258. Forced : No

  259. Audio #12
  260. ID : 13
  261. Format : DTS
  262. Format/Info : Digital Theater Systems
  263. Codec ID : A_DTS
  264. Duration : 2 h 14 min
  265. Bit rate mode : Constant
  266. Bit rate : 768 kb/s
  267. Channel(s) : 6 channels
  268. Channel layout : C L R Ls Rs LFE
  269. Sampling rate : 48.0 kHz
  270. Frame rate : 93.750 FPS (512 SPF)
  271. Bit depth : 24 bits
  272. Compression mode : Lossy
  273. Stream size : 739 MiB (1%)
  274. Title : Bohemian.Rhapsody.2018.2160p.BluRay.REMUX.HEVC.DTS-HD.MA.TrueHD.7.1.Atmos-FGT
  275. Language : German
  276. Default : No
  277. Forced : No

  278. Audio #13
  279. ID : 14
  280. Format : DTS
  281. Format/Info : Digital Theater Systems
  282. Codec ID : A_DTS
  283. Duration : 2 h 14 min
  284. Bit rate mode : Constant
  285. Bit rate : 768 kb/s
  286. Channel(s) : 6 channels
  287. Channel layout : C L R Ls Rs LFE
  288. Sampling rate : 48.0 kHz
  289. Frame rate : 93.750 FPS (512 SPF)
  290. Bit depth : 24 bits
  291. Compression mode : Lossy
  292. Stream size : 739 MiB (1%)
  293. Title : Bohemian.Rhapsody.2018.2160p.BluRay.REMUX.HEVC.DTS-HD.MA.TrueHD.7.1.Atmos-FGT
  294. Language : Italian
  295. Default : No
  296. Forced : No

  297. Text #1
  298. ID : 15
  299. Format : UTF-8
  300. Codec ID : S_TEXT/UTF8
  301. Codec ID/Info : UTF-8 Plain Text
  302. Duration : 2 h 6 min
  303. Bit rate : 61 b/s
  304. Count of elements : 2059
  305. Stream size : 57.3 KiB (0%)
  306. Title : English-SRT
  307. Language : English
  308. Default : Yes
  309. Forced : No

  310. Text #2
  311. ID : 16
  312. Format : PGS
  313. Muxing mode : zlib
  314. Codec ID : S_HDMV/PGS
  315. Codec ID/Info : Picture based subtitle format used on BDs/HD-DVDs
  316. Duration : 2 h 11 min
  317. Bit rate : 44.0 kb/s
  318. Count of elements : 4536
  319. Stream size : 41.2 MiB (0%)
  320. Title : English-PGS
  321. Language : English
  322. Default : No
  323. Forced : No

  324. Text #3
  325. ID : 17
  326. Format : PGS
  327. Muxing mode : zlib
  328. Codec ID : S_HDMV/PGS
  329. Codec ID/Info : Picture based subtitle format used on BDs/HD-DVDs
  330. Duration : 2 h 13 min
  331. Bit rate : 28.9 kb/s
  332. Count of elements : 3107
  333. Stream size : 27.6 MiB (0%)
  334. Title : Spanish-PGS
  335. Language : Spanish
  336. Default : No
  337. Forced : No

  338. Text #4
  339. ID : 18
  340. Format : PGS
  341. Muxing mode : zlib
  342. Codec ID : S_HDMV/PGS
  343. Codec ID/Info : Picture based subtitle format used on BDs/HD-DVDs
  344. Duration : 2 h 13 min
  345. Bit rate : 26.6 kb/s
  346. Count of elements : 3514
  347. Stream size : 25.5 MiB (0%)
  348. Title : French-PGS
  349. Language : French
  350. Default : No
  351. Forced : No

  352. Text #5
  353. ID : 19
  354. Format : PGS
  355. Muxing mode : zlib
  356. Codec ID : S_HDMV/PGS
  357. Codec ID/Info : Picture based subtitle format used on BDs/HD-DVDs
  358. Duration : 2 h 13 min
  359. Bit rate : 29.0 kb/s
  360. Count of elements : 3176
  361. Stream size : 27.6 MiB (0%)
  362. Title : Spanish-PGS
  363. Language : Spanish
  364. Default : No
  365. Forced : No

  366. Text #6
  367. ID : 20
  368. Format : PGS
  369. Muxing mode : zlib
  370. Codec ID : S_HDMV/PGS
  371. Codec ID/Info : Picture based subtitle format used on BDs/HD-DVDs
  372. Duration : 2 h 13 min
  373. Bit rate : 28.8 kb/s
  374. Count of elements : 2320
  375. Stream size : 27.5 MiB (0%)
  376. Title : Danish-PGS
  377. Language : Danish
  378. Default : No
  379. Forced : No

  380. Text #7
  381. ID : 21
  382. Format : PGS
  383. Muxing mode : zlib
  384. Codec ID : S_HDMV/PGS
  385. Codec ID/Info : Picture based subtitle format used on BDs/HD-DVDs
  386. Duration : 2 h 13 min
  387. Bit rate : 26.6 kb/s
  388. Count of elements : 2436
  389. Stream size : 25.3 MiB (0%)
  390. Title : Dutch-PGS
  391. Language : Dutch
  392. Default : No
  393. Forced : No

  394. Text #8
  395. ID : 22
  396. Format : PGS
  397. Muxing mode : zlib
  398. Codec ID : S_HDMV/PGS
  399. Codec ID/Info : Picture based subtitle format used on BDs/HD-DVDs
  400. Duration : 2 h 13 min
  401. Bit rate : 29.1 kb/s
  402. Count of elements : 3476
  403. Stream size : 27.7 MiB (0%)
  404. Title : Finnish-PGS
  405. Language : Finnish
  406. Default : No
  407. Forced : No

  408. Text #9
  409. ID : 23
  410. Format : PGS
  411. Muxing mode : zlib
  412. Codec ID : S_HDMV/PGS
  413. Codec ID/Info : Picture based subtitle format used on BDs/HD-DVDs
  414. Duration : 2 h 13 min
  415. Bit rate : 31.2 kb/s
  416. Count of elements : 3076
  417. Stream size : 29.8 MiB (0%)
  418. Title : German-PGS
  419. Language : German
  420. Default : No
  421. Forced : No

  422. Text #10
  423. ID : 24
  424. Format : PGS
  425. Muxing mode : zlib
  426. Codec ID : S_HDMV/PGS
  427. Codec ID/Info : Picture based subtitle format used on BDs/HD-DVDs
  428. Duration : 2 h 13 min
  429. Bit rate : 28.5 kb/s
  430. Count of elements : 3516
  431. Stream size : 27.2 MiB (0%)
  432. Title : Italian-PGS
  433. Language : Italian
  434. Default : No
  435. Forced : No

  436. Text #11
  437. ID : 25
  438. Format : PGS
  439. Muxing mode : zlib
  440. Codec ID : S_HDMV/PGS
  441. Codec ID/Info : Picture based subtitle format used on BDs/HD-DVDs
  442. Duration : 2 h 13 min
  443. Bit rate : 20.4 kb/s
  444. Count of elements : 3073
  445. Stream size : 19.4 MiB (0%)
  446. Title : Japanese-PGS
  447. Language : Japanese
  448. Default : No
  449. Forced : No

  450. Text #12
  451. ID : 26
  452. Format : PGS
  453. Muxing mode : zlib
  454. Codec ID : S_HDMV/PGS
  455. Codec ID/Info : Picture based subtitle format used on BDs/HD-DVDs
  456. Duration : 2 h 7 min
  457. Bit rate : 4 127 b/s
  458. Count of elements : 429
  459. Stream size : 3.78 MiB (0%)
  460. Title : Japanese-PGS
  461. Language : Japanese
  462. Default : No
  463. Forced : No

  464. Text #13
  465. ID : 27
  466. Format : PGS
  467. Muxing mode : zlib
  468. Codec ID : S_HDMV/PGS
  469. Codec ID/Info : Picture based subtitle format used on BDs/HD-DVDs
  470. Duration : 2 h 13 min
  471. Bit rate : 29.6 kb/s
  472. Count of elements : 3466
  473. Stream size : 28.2 MiB (0%)
  474. Title : Norwegian-PGS
  475. Language : Norwegian
  476. Default : No
  477. Forced : No

  478. Text #14
  479. ID : 28
  480. Format : PGS
  481. Muxing mode : zlib
  482. Codec ID : S_HDMV/PGS
  483. Codec ID/Info : Picture based subtitle format used on BDs/HD-DVDs
  484. Duration : 2 h 13 min
  485. Bit rate : 29.4 kb/s
  486. Count of elements : 3452
  487. Stream size : 28.0 MiB (0%)
  488. Title : Swedish-PGS
  489. Language : Swedish
  490. Default : No
  491. Forced : No

  492. Text #15
  493. ID : 29
  494. Format : PGS
  495. Muxing mode : zlib
  496. Codec ID : S_HDMV/PGS
  497. Codec ID/Info : Picture based subtitle format used on BDs/HD-DVDs
  498. Duration : 2 h 13 min
  499. Bit rate : 27.2 kb/s
  500. Count of elements : 4000
  501. Stream size : 26.0 MiB (0%)
  502. Title : Chinese-PGS
  503. Language : Chinese
  504. Default : No
  505. Forced : No

  506. Text #16
  507. ID : 30
  508. Format : PGS
  509. Muxing mode : zlib
  510. Codec ID : S_HDMV/PGS
  511. Codec ID/Info : Picture based subtitle format used on BDs/HD-DVDs
  512. Duration : 2 h 13 min
  513. Bit rate : 28.0 kb/s
  514. Count of elements : 3468
  515. Stream size : 26.7 MiB (0%)
  516. Title : Czech-PGS
  517. Language : Czech
  518. Default : No
  519. Forced : No

  520. Text #17
  521. ID : 31
  522. Format : PGS
  523. Muxing mode : zlib
  524. Codec ID : S_HDMV/PGS
  525. Codec ID/Info : Picture based subtitle format used on BDs/HD-DVDs
  526. Duration : 2 h 13 min
  527. Bit rate : 22.4 kb/s
  528. Count of elements : 3950
  529. Stream size : 21.4 MiB (0%)
  530. Title : Korean-PGS
  531. Language : Korean
  532. Default : No
  533. Forced : No

  534. Text #18
  535. ID : 32
  536. Format : PGS
  537. Muxing mode : zlib
  538. Codec ID : S_HDMV/PGS
  539. Codec ID/Info : Picture based subtitle format used on BDs/HD-DVDs
  540. Duration : 2 h 13 min
  541. Bit rate : 27.5 kb/s
  542. Count of elements : 3996
  543. Stream size : 26.2 MiB (0%)
  544. Title : Chinese-PGS
  545. Language : Chinese
  546. Default : No
  547. Forced : No

  548. Text #19
  549. ID : 33
  550. Format : PGS
  551. Muxing mode : zlib
  552. Codec ID : S_HDMV/PGS
  553. Codec ID/Info : Picture based subtitle format used on BDs/HD-DVDs
  554. Duration : 2 h 13 min
  555. Bit rate : 24.2 kb/s
  556. Count of elements : 3150
  557. Stream size : 23.1 MiB (0%)
  558. Title : Polish-PGS
  559. Language : Polish
  560. Default : No
  561. Forced : No

  562. Text #20
  563. ID : 34
  564. Format : PGS
  565. Muxing mode : zlib
  566. Codec ID : S_HDMV/PGS
  567. Codec ID/Info : Picture based subtitle format used on BDs/HD-DVDs
  568. Duration : 2 h 13 min
  569. Bit rate : 3 754 b/s
  570. Count of elements : 388
  571. Stream size : 3.59 MiB (0%)
  572. Title : French-PGS
  573. Language : French
  574. Default : No
  575. Forced : No

  576. Menu
  577. 00:00:00.000 : :Chapter 1
  578. 00:03:48.728 : :Chapter 2
  579. 00:07:45.465 : :Chapter 3
  580. 00:11:16.592 : :Chapter 4
  581. 00:17:41.810 : :Chapter 5
  582. 00:21:03.178 : :Chapter 6
  583. 00:27:24.184 : :Chapter 7
  584. 00:33:34.846 : :Chapter 8
  585. 00:37:22.281 : :Chapter 9
  586. 00:45:24.012 : :Chapter 10
  587. 00:52:19.594 : :Chapter 11
  588. 00:56:57.205 : :Chapter 12
  589. 01:03:11.412 : :Chapter 13
  590. 01:10:44.990 : :Chapter 14
  591. 01:15:25.729 : :Chapter 15
  592. 01:21:45.901 : :Chapter 16
  593. 01:26:59.172 : :Chapter 17
  594. 01:32:18.199 : :Chapter 18
  595. 01:36:43.923 : :Chapter 19
  596. 01:43:25.574 : :Chapter 20
  597. 01:50:23.283 : :Chapter 21
  598. 01:54:22.897 : :Chapter 22
  599. 02:00:41.108 : :Chapter 23
  600. 02:07:53.332 : :Chapter 24
复制代码





字幕下载网站---点这里进入
回复

使用道具 举报

您需要登录后才可以回帖 登录 | 立即注册

本版积分规则

QQ|Archiver|手机版|小黑屋|蓝光电影网 ( 滇ICP备18001150号-1 )

GMT+8, 2021-1-22 23:47 , Processed in 0.050261 second(s), 24 queries .

Powered by Discuz! X3.4

Copyright © 2001-2020, Tencent Cloud.

快速回复 返回顶部 返回列表