蓝光电影网

 找回密码
 立即注册

QQ登录

只需一步,快速开始

查看: 36|回复: 0

[10bit.SDR] 贼博士/老妇杀手团 The.Ladykillers.1955.FS.2160p.BluRay.x265.10bit.SDR.DTS-HD.MA.2.0-SWTYBLZ 35.93GB

[复制链接]

已抛锚 成长值: 310

7万

主题

7万

帖子

8万

积分

管理员

Rank: 9Rank: 9Rank: 9

积分
81221
发表于 2021-1-13 00:10:02 | 显示全部楼层 |阅读模式


译  名 贼博士 / 老妇杀手团 / 贵妇杀手
片  名 The Ladykillers
年  代 1955
产  地 英国
类  别 笑剧 / 惊悚 / 犯罪
语  言 英语
上映日期 1955-12-01
IMDb评分7.7/10 from 25079 users
IMDb链接https://www.imdb.com/title/tt0048281
豆瓣评分 7.7/10 from 2431 users
豆瓣链接 https://movie.douban.com/subject/1304710/
片  长 91 分钟
导  演 Alexander Mackendrick
编  剧 William Rose
主  演 Alec Guinness
     Cecil Parker
     Herbert Lom
     Peter Sellers
     Katie Johnson
标  签 英国 | 笑剧 | 犯罪 | 英国电影 | 黑色诙谐 | 1950s | 1955 | AlexanderMackendrick
简  介
  怀博菲丝太太在差人局自称见到不明飞翔物被差人赶了进来。
  一个乐队跑去了怀博菲丝太太的居处,他们希望能借住在这里缔造一首新歌。实在他们正计划抢劫运钞车,他们在怀博菲丝太太的公寓准备着全部计划,而怀博菲丝太太还蒙在鼓里。
  当他们成功的抢劫了运钞车以后,工作也终究让怀博菲丝太太发现了,他们决议将怀博菲丝太太杀掉依然仍旧,但他们却都由于分歧的缘由相继死去。
  老太太去差人局报案,差人却由于之前的“不明飞翔物事务”完全否认怀博菲丝太太的说法,最初那笔钱全成了老太太一小我的。
  报告一群智商不高的盗贼想不到会栽在一个小老太太手里。居住在伦敦的怀博菲丝太太到差人局自称见到不明飞翔物,被差人赶了进来。一个乐队来到菲丝太太的居处租屋子,说要在这里搞创作。实在他们是一伙窃贼,正计划抢劫运钞车,要在菲丝太太的公寓做预备,而她还蒙在鼓里。当他们抢劫成功后,菲丝太太也终究发现了真相,因而他们决议将菲丝太太灭口,但是这个老太太似乎不是看上去那末好对于,窃贼们全都由于分歧的缘由相继死去。老太太去警局报案,差人却由于之前的“不明飞翔物事务”完全否认菲丝太太的说法,最初那笔钱全成了老太太一小我的。
获奖情况
  第29届奥斯卡金像奖(1957)
  最好原创剧本(提名) 威廉·罗斯

  1. Video
  2. ID             : 1
  3. Format           : HEVC
  4. Format/Info          : High Efficiency Video Coding
  5. Format profile         : Main [email]10@L5.1[/email]@High
  6. Codec ID           : V_MPEGH/ISO/HEVC
  7. Duration           : 1 h 30 min
  8. Bit rate           : 54.2 Mb/s
  9. Width            : 3 600 pixels
  10. Height           : 2 160 pixels
  11. Display aspect ratio       : 5:3
  12. Frame rate mode        : Constant
  13. Frame rate           : 24.000 FPS
  14. Color space          : YUV
  15. Chroma subsampling       : 4:2:0
  16. Bit depth          : 10 bits
  17. Bits/(Pixel*Frame)       : 0.290
  18. Stream size          : 34.3 GiB (96%)
  19. Writing library        : x265 3.0+1-ed72af837053:[Windows][GCC 8.2.0][64 bit] 10bit
  20. Encoding settings        : cpuid=1111039 / frame-threads=6 / numa-pools=40 / wpp / no-pmode / no-pme / no-psnr / no-ssim / log-level=2 / input-csp=1 / input-res=3600x2160 / interlace=0 / total-frames=130599 / level-idc=51 / high-tier=1 / uhd-bd=0 / ref=3 / no-allow-non-conformance / repeat-headers / annexb / aud / hrd / info / hash=0 / no-temporal-layers / no-open-gop / min-keyint=1 / keyint=24 / gop-lookahead=0 / bframes=4 / b-adapt=2 / b-pyramid / bframe-bias=0 / rc-lookahead=25 / lookahead-slices=4 / scenecut=40 / radl=0 / no-splice / no-intra-refresh / ctu=64 / min-cu-size=8 / no-rect / no-amp / max-tu-size=32 / tu-inter-depth=1 / tu-intra-depth=1 / limit-tu=0 / rdoq-level=0 / dynamic-rd=0.00 / no-ssim-rd / signhide / no-tskip / nr-intra=0 / nr-inter=0 / no-constrained-intra / strong-intra-smoothing / max-merge=2 / limit-refs=3 / no-limit-modes / me=1 / subme=2 / merange=57 / temporal-mvp / weightp / no-weightb / no-analyze-src-pics / deblock=0:0 / no-sao / no-sao-non-deblock / rd=3 / no-early-skip / rskip / no-fast-intra / no-tskip-fast / no-cu-lossless / no-b-intra / no-splitrd-skip / rdpenalty=0 / psy-rd=2.00 / psy-rdoq=0.00 / no-rd-refine / no-lossless / cbqpoffs=0 / crqpoffs=0 / rc=crf / crf=20.0 / qcomp=0.60 / qpstep=4 / stats-write=0 / stats-read=0 / vbv-maxrate=160000 / vbv-bufsize=160000 / vbv-init=0.9 / crf-max=0.0 / crf-min=0.0 / ipratio=1.40 / pbratio=1.30 / aq-mode=1 / aq-strength=1.00 / cutree / zone-count=0 / no-strict-cbr / qg-size=32 / no-rc-grain / qpmax=69 / qpmin=0 / no-const-vbv / sar=1 / overscan=0 / videoformat=5 / range=0 / colorprim=2 / transfer=2 / colormatrix=2 / chromaloc=0 / display-window=0 / max-cll=0,0 / min-luma=0 / max-luma=1023 / log2-max-poc-lsb=8 / vui-timing-info / vui-hrd-info / slices=1 / opt-qp-pps / opt-ref-list-length-pps / no-multi-pass-opt-rps / scenecut-bias=0.05 / no-opt-cu-delta-qp / no-aq-motion / no-hdr / no-hdr-opt / no-dhdr10-opt / no-idr-recovery-sei / analysis-reuse-level=5 / scale-factor=0 / refine-intra=0 / refine-inter=0 / refine-mv=0 / refine-ctu-distortion=0 / no-limit-sao / ctu-info=0 / no-lowpass-dct / refine-analysis-type=0 / copy-pic=1 / max-ausize-factor=1.0 / no-dynamic-refine / no-single-sei / no-hevc-aq / qp-adaptation-range=1.00
  21. Default            : Yes
  22. Forced           : No
  23. Audio #1
  24. ID             : 2
  25. Format           : DTS XLL
  26. Format/Info          : Digital Theater Systems
  27. Commercial name        : DTS-HD Master Audio
  28. Codec ID           : A_DTS
  29. Duration           : 1 h 30 min
  30. Bit rate mode          : Variable
  31. Bit rate           : 1 489 kb/s
  32. Channel(s)           : 2 channels
  33. Channel layout         : L R
  34. Sampling rate          : 48.0 kHz
  35. Frame rate           : 93.750 FPS (512 SPF)
  36. Bit depth          : 24 bits
  37. Compression mode         : Lossless
  38. Stream size          : 966 MiB (3%)
  39. Title            : DTS-HD MA 2.0
  40. Language           : English
  41. Default            : Yes
  42. Forced           : No
  43. Audio #2
  44. ID             : 3
  45. Format           : AC-3
  46. Format/Info          : Audio Coding 3
  47. Commercial name        : Dolby Digital
  48. Codec ID           : A_AC3
  49. Duration           : 1 h 30 min
  50. Bit rate mode          : Constant
  51. Bit rate           : 640 kb/s
  52. Channel(s)           : 2 channels
  53. Channel layout         : L R
  54. Sampling rate          : 48.0 kHz
  55. Frame rate           : 31.250 FPS (1536 SPF)
  56. Compression mode         : Lossy
  57. Stream size          : 415 MiB (1%)
  58. Title            : DD 2.0
  59. Language           : English
  60. Service kind         : Complete Main
  61. Default            : No
  62. Forced           : No
  63. Text #1
  64. ID             : 4
  65. Format           : UTF-8
  66. Codec ID           : S_TEXT/UTF8
  67. Codec ID/Info          : UTF-8 Plain Text
  68. Duration           : 1 h 28 min
  69. Bit rate           : 63 b/s
  70. Count of elements        : 1092
  71. Stream size          : 40.8 KiB (0%)
  72. Title            : English-SRT
  73. Language           : English
  74. Default            : Yes
  75. Forced           : No
  76. Text #2
  77. ID             : 5
  78. Format           : PGS
  79. Muxing mode          : zlib
  80. Codec ID           : S_HDMV/PGS
  81. Codec ID/Info          : Picture based subtitle format used on BDs/HD-DVDs
  82. Duration           : 1 h 28 min
  83. Bit rate           : 41.0 kb/s
  84. Count of elements        : 2346
  85. Stream size          : 25.9 MiB (0%)
  86. Title            : English-PGS
  87. Language           : English
  88. Default            : No
  89. Forced           : No
  90. Text #3
  91. ID             : 6
  92. Format           : PGS
  93. Muxing mode          : zlib
  94. Codec ID           : S_HDMV/PGS
  95. Codec ID/Info          : Picture based subtitle format used on BDs/HD-DVDs
  96. Duration           : 1 h 30 min
  97. Bit rate           : 61.1 kb/s
  98. Count of elements        : 3192
  99. Stream size          : 39.3 MiB (0%)
  100. Title            : English-SDH-PGS
  101. Language           : English
  102. Default            : No
  103. Forced           : No
  104. Menu
  105. 00:00:00.000         : :Chapter 01
  106. 00:08:00.208         : :Chapter 02
  107. 00:18:14.375         : :Chapter 03
  108. 00:25:27.333         : :Chapter 04
  109. 00:31:47.458         : :Chapter 05
  110. 00:38:20.292         : :Chapter 06
  111. 00:45:58.958         : :Chapter 07
  112. 00:52:51.250         : :Chapter 08
  113. 01:04:29.667         : :Chapter 09
  114. 01:10:36.500         : :Chapter 10
  115. 01:18:22.750         : :Chapter 11
  116. 01:27:37.083         : :Chapter 12
复制代码













字幕下载网站---点这里进入
回复

使用道具 举报

您需要登录后才可以回帖 登录 | 立即注册

本版积分规则

QQ|Archiver|手机版|小黑屋|蓝光电影网 ( 滇ICP备18001150号-1 )

GMT+8, 2021-1-22 23:38 , Processed in 0.050916 second(s), 24 queries .

Powered by Discuz! X3.4

Copyright © 2001-2020, Tencent Cloud.

快速回复 返回顶部 返回列表