蓝光电影网

 找回密码
 立即注册

QQ登录

只需一步,快速开始

查看: 42|回复: 0

[8bit.SDR] 贼博士/老妇杀手团 The.Ladykillers.1955.FS.2160p.BluRay.x264.8bit.SDR.DTS-HD.MA.2.0-SWTYBLZ 41.40GB

[复制链接]

已抛锚 成长值: 310

7万

主题

7万

帖子

8万

积分

管理员

Rank: 9Rank: 9Rank: 9

积分
81221
发表于 2021-1-13 00:11:45 | 显示全部楼层 |阅读模式


译  名 贼博士 / 老妇杀手团 / 贵妇杀手
片  名 The Ladykillers
年  代 1955
产  地 英国
类  别 笑剧 / 惊悚 / 犯罪
语  言 英语
上映日期 1955-12-01
IMDb评分7.7/10 from 25079 users
IMDb链接https://www.imdb.com/title/tt0048281
豆瓣评分 7.7/10 from 2431 users
豆瓣链接 https://movie.douban.com/subject/1304710/
片  长 91 分钟
导  演 Alexander Mackendrick
编  剧 William Rose
主  演 Alec Guinness
     Cecil Parker
     Herbert Lom
     Peter Sellers
     Katie Johnson
标  签 英国 | 笑剧 | 犯罪 | 英国电影 | 黑色诙谐 | 1950s | 1955 | AlexanderMackendrick
简  介
  怀博菲丝太太在差人局自称见到不明飞翔物被差人赶了进来。
  一个乐队跑去了怀博菲丝太太的居处,他们希望能借住在这里缔造一首新歌。实在他们正计划抢劫运钞车,他们在怀博菲丝太太的公寓准备着全部计划,而怀博菲丝太太还蒙在鼓里。
  当他们成功的抢劫了运钞车以后,工作也终究让怀博菲丝太太发现了,他们决议将怀博菲丝太太杀掉依然仍旧,但他们却都由于分歧的缘由相继死去。
  老太太去差人局报案,差人却由于之前的“不明飞翔物事务”完全否认怀博菲丝太太的说法,最初那笔钱全成了老太太一小我的。
  报告一群智商不高的盗贼想不到会栽在一个小老太太手里。居住在伦敦的怀博菲丝太太到差人局自称见到不明飞翔物,被差人赶了进来。一个乐队来到菲丝太太的居处租屋子,说要在这里搞创作。实在他们是一伙窃贼,正计划抢劫运钞车,要在菲丝太太的公寓做预备,而她还蒙在鼓里。当他们抢劫成功后,菲丝太太也终究发现了真相,因而他们决议将菲丝太太灭口,但是这个老太太似乎不是看上去那末好对于,窃贼们全都由于分歧的缘由相继死去。老太太去警局报案,差人却由于之前的“不明飞翔物事务”完全否认菲丝太太的说法,最初那笔钱全成了老太太一小我的。
获奖情况
  第29届奥斯卡金像奖(1957)
  最好原创剧本(提名) 威廉·罗斯

  1. Video
  2. ID             : 1
  3. Format           : AVC
  4. Format/Info          : Advanced Video Codec
  5. Format profile         : [email]High@L5.1[/email]
  6. Format settings        : CABAC / 5 Ref Frames
  7. Format settings, CABAC       : Yes
  8. Format settings, Reference frames  : 5 frames
  9. Codec ID           : V_MPEG4/ISO/AVC
  10. Duration           : 1 h 30 min
  11. Bit rate           : 62.7 Mb/s
  12. Width            : 3 600 pixels
  13. Height           : 2 160 pixels
  14. Display aspect ratio       : 5:3
  15. Frame rate mode        : Constant
  16. Frame rate           : 24.000 FPS
  17. Color space          : YUV
  18. Chroma subsampling       : 4:2:0
  19. Bit depth          : 8 bits
  20. Scan type          : Progressive
  21. Bits/(Pixel*Frame)       : 0.336
  22. Stream size          : 39.7 GiB (97%)
  23. Writing library        : x264 core 157 r2935 545de2f
  24. Encoding settings        : cabac=1 / ref=5 / deblock=1:-1:-1 / analyse=0x3:0x113 / me=umh / subme=10 / psy=1 / psy_rd=1.00:0.15 / mixed_ref=1 / me_range=48 / chroma_me=1 / trellis=2 / 8x8dct=1 / cqm=0 / deadzone=21,11 / fast_pskip=1 / chroma_qp_offset=-3 / threads=48 / lookahead_threads=4 / sliced_threads=0 / nr=0 / decimate=0 / interlaced=0 / bluray_compat=0 / constrained_intra=0 / bframes=3 / b_pyramid=2 / b_adapt=2 / b_bias=0 / direct=3 / weightb=1 / open_gop=0 / weightp=2 / keyint=250 / keyint_min=24 / scenecut=40 / intra_refresh=0 / rc_lookahead=50 / rc=crf / mbtree=1 / crf=22.0 / qcomp=0.60 / qpmin=0 / qpmax=69 / qpstep=4 / ip_ratio=1.40 / aq=1:1.00
  25. Default            : Yes
  26. Forced           : No
  27. Audio #1
  28. ID             : 2
  29. Format           : DTS XLL
  30. Format/Info          : Digital Theater Systems
  31. Commercial name        : DTS-HD Master Audio
  32. Codec ID           : A_DTS
  33. Duration           : 1 h 30 min
  34. Bit rate mode          : Variable
  35. Bit rate           : 1 489 kb/s
  36. Channel(s)           : 2 channels
  37. Channel layout         : L R
  38. Sampling rate          : 48.0 kHz
  39. Frame rate           : 93.750 FPS (512 SPF)
  40. Bit depth          : 24 bits
  41. Compression mode         : Lossless
  42. Stream size          : 966 MiB (2%)
  43. Title            : DTS-HD MA 2.0
  44. Language           : English
  45. Default            : Yes
  46. Forced           : No
  47. Audio #2
  48. ID             : 3
  49. Format           : AC-3
  50. Format/Info          : Audio Coding 3
  51. Commercial name        : Dolby Digital
  52. Codec ID           : A_AC3
  53. Duration           : 1 h 30 min
  54. Bit rate mode          : Constant
  55. Bit rate           : 640 kb/s
  56. Channel(s)           : 2 channels
  57. Channel layout         : L R
  58. Sampling rate          : 48.0 kHz
  59. Frame rate           : 31.250 FPS (1536 SPF)
  60. Compression mode         : Lossy
  61. Stream size          : 415 MiB (1%)
  62. Title            : DD 2.0
  63. Language           : English
  64. Service kind         : Complete Main
  65. Default            : No
  66. Forced           : No
  67. Text #1
  68. ID             : 4
  69. Format           : UTF-8
  70. Codec ID           : S_TEXT/UTF8
  71. Codec ID/Info          : UTF-8 Plain Text
  72. Duration           : 1 h 28 min
  73. Bit rate           : 63 b/s
  74. Count of elements        : 1092
  75. Stream size          : 40.8 KiB (0%)
  76. Title            : English-SRT
  77. Language           : English
  78. Default            : Yes
  79. Forced           : No
  80. Text #2
  81. ID             : 5
  82. Format           : PGS
  83. Muxing mode          : zlib
  84. Codec ID           : S_HDMV/PGS
  85. Codec ID/Info          : Picture based subtitle format used on BDs/HD-DVDs
  86. Duration           : 1 h 28 min
  87. Bit rate           : 41.0 kb/s
  88. Count of elements        : 2346
  89. Stream size          : 25.9 MiB (0%)
  90. Title            : English-PGS
  91. Language           : English
  92. Default            : No
  93. Forced           : No
  94. Text #3
  95. ID             : 6
  96. Format           : PGS
  97. Muxing mode          : zlib
  98. Codec ID           : S_HDMV/PGS
  99. Codec ID/Info          : Picture based subtitle format used on BDs/HD-DVDs
  100. Duration           : 1 h 30 min
  101. Bit rate           : 61.1 kb/s
  102. Count of elements        : 3192
  103. Stream size          : 39.3 MiB (0%)
  104. Title            : English-SDH-PGS
  105. Language           : English
  106. Default            : No
  107. Forced           : No
  108. Menu
  109. 00:00:00.000         : :Chapter 01
  110. 00:08:00.208         : :Chapter 02
  111. 00:18:14.375         : :Chapter 03
  112. 00:25:27.333         : :Chapter 04
  113. 00:31:47.458         : :Chapter 05
  114. 00:38:20.292         : :Chapter 06
  115. 00:45:58.958         : :Chapter 07
  116. 00:52:51.250         : :Chapter 08
  117. 01:04:29.667         : :Chapter 09
  118. 01:10:36.500         : :Chapter 10
  119. 01:18:22.750         : :Chapter 11
  120. 01:27:37.083         : :Chapter 12
复制代码














字幕下载网站---点这里进入
回复

使用道具 举报

您需要登录后才可以回帖 登录 | 立即注册

本版积分规则

QQ|Archiver|手机版|小黑屋|蓝光电影网 ( 滇ICP备18001150号-1 )

GMT+8, 2021-1-24 00:26 , Processed in 0.050325 second(s), 24 queries .

Powered by Discuz! X3.4

Copyright © 2001-2020, Tencent Cloud.

快速回复 返回顶部 返回列表