蓝光电影网

 找回密码
 立即注册

QQ登录

只需一步,快速开始

查看: 52|回复: 0

[10bit.HDR] 贼博士/老妇杀手团 The.Ladykillers.1955.FS.2160p.UHD.BluRay.x265.10bit.HDR.DTS-HD.MA.2.0-SWTYBLZ 27.01GB

[复制链接]

已抛锚 成长值: 310

7万

主题

7万

帖子

8万

积分

管理员

Rank: 9Rank: 9Rank: 9

积分
81221
发表于 2021-1-13 00:10:26 | 显示全部楼层 |阅读模式


译  名 贼博士 / 老妇杀手团 / 贵妇杀手
片  名 The Ladykillers
年  代 1955
产  地 英国
类  别 笑剧 / 惊悚 / 犯罪
语  言 英语
上映日期 1955-12-01
IMDb评分7.7/10 from 25079 users
IMDb链接https://www.imdb.com/title/tt0048281
豆瓣评分 7.7/10 from 2431 users
豆瓣链接 https://movie.douban.com/subject/1304710/
片  长 91 分钟
导  演 Alexander Mackendrick
编  剧 William Rose
主  演 Alec Guinness
     Cecil Parker
     Herbert Lom
     Peter Sellers
     Katie Johnson
标  签 英国 | 笑剧 | 犯罪 | 英国电影 | 黑色诙谐 | 1950s | 1955 | AlexanderMackendrick
简  介
  怀博菲丝太太在差人局自称见到不明飞翔物被差人赶了进来。
  一个乐队跑去了怀博菲丝太太的居处,他们希望能借住在这里缔造一首新歌。实在他们正计划抢劫运钞车,他们在怀博菲丝太太的公寓准备着全部计划,而怀博菲丝太太还蒙在鼓里。
  当他们成功的抢劫了运钞车以后,工作也终究让怀博菲丝太太发现了,他们决议将怀博菲丝太太杀掉依然仍旧,但他们却都由于分歧的缘由相继死去。
  老太太去差人局报案,差人却由于之前的“不明飞翔物事务”完全否认怀博菲丝太太的说法,最初那笔钱全成了老太太一小我的。
  报告一群智商不高的盗贼想不到会栽在一个小老太太手里。居住在伦敦的怀博菲丝太太到差人局自称见到不明飞翔物,被差人赶了进来。一个乐队来到菲丝太太的居处租屋子,说要在这里搞创作。实在他们是一伙窃贼,正计划抢劫运钞车,要在菲丝太太的公寓做预备,而她还蒙在鼓里。当他们抢劫成功后,菲丝太太也终究发现了真相,因而他们决议将菲丝太太灭口,但是这个老太太似乎不是看上去那末好对于,窃贼们全都由于分歧的缘由相继死去。老太太去警局报案,差人却由于之前的“不明飞翔物事务”完全否认菲丝太太的说法,最初那笔钱全成了老太太一小我的。
获奖情况
  第29届奥斯卡金像奖(1957)
  最好原创剧本(提名) 威廉·罗斯

  1. Video
  2. ID             : 2
  3. Format           : HEVC
  4. Format/Info          : High Efficiency Video Coding
  5. Format profile         : Main [email]10@L5.1[/email]@High
  6. HDR format           : SMPTE ST 2086, HDR10 compatible
  7. Codec ID           : V_MPEGH/ISO/HEVC
  8. Duration           : 1 h 30 min
  9. Bit rate           : 40.2 Mb/s
  10. Width            : 3 600 pixels
  11. Height           : 2 160 pixels
  12. Display aspect ratio       : 5:3
  13. Frame rate mode        : Constant
  14. Frame rate           : 24.000 FPS
  15. Color space          : YUV
  16. Chroma subsampling       : 4:2:0 (Type 2)
  17. Bit depth          : 10 bits
  18. Bits/(Pixel*Frame)       : 0.216
  19. Stream size          : 25.5 GiB (95%)
  20. Writing library        : x265 3.0_Au+10-74a8672ea4f7:[Windows][GCC 8.2.1][64 bit] 10bit
  21. Encoding settings        : cpuid=1111039 / frame-threads=6 / numa-pools=24,24,24,24 / wpp / no-pmode / no-pme / no-psnr / no-ssim / log-level=2 / input-csp=1 / input-res=3600x2160 / interlace=0 / total-frames=0 / level-idc=51 / high-tier=1 / uhd-bd=0 / ref=3 / no-allow-non-conformance / repeat-headers / annexb / aud / hrd / info / hash=0 / no-temporal-layers / no-open-gop / min-keyint=1 / keyint=24 / gop-lookahead=0 / bframes=4 / b-adapt=2 / b-pyramid / bframe-bias=0 / rc-lookahead=25 / lookahead-slices=4 / scenecut=40 / radl=0 / no-splice / no-intra-refresh / ctu=64 / min-cu-size=8 / no-rect / no-amp / max-tu-size=32 / tu-inter-depth=1 / tu-intra-depth=1 / limit-tu=0 / rdoq-level=0 / dynamic-rd=0.00 / no-ssim-rd / signhide / no-tskip / nr-intra=0 / nr-inter=0 / no-constrained-intra / strong-intra-smoothing / max-merge=2 / limit-refs=3 / no-limit-modes / me=1 / subme=2 / merange=57 / temporal-mvp / weightp / no-weightb / no-analyze-src-pics / deblock=0:0 / no-sao / no-sao-non-deblock / rd=3 / no-early-skip / rskip / no-fast-intra / no-tskip-fast / no-cu-lossless / no-b-intra / no-splitrd-skip / rdpenalty=0 / psy-rd=2.00 / psy-rdoq=0.00 / no-rd-refine / no-lossless / cbqpoffs=0 / crqpoffs=0 / rc=crf / crf=18.0 / qcomp=0.60 / qpstep=4 / stats-write=0 / stats-read=0 / vbv-maxrate=160000 / vbv-bufsize=160000 / vbv-init=0.9 / crf-max=0.0 / crf-min=0.0 / ipratio=1.40 / pbratio=1.30 / aq-mode=1 / aq-strength=1.00 / cutree / zone-count=0 / no-strict-cbr / qg-size=32 / no-rc-grain / qpmax=69 / qpmin=0 / no-const-vbv / sar=1 / overscan=0 / videoformat=5 / range=0 / colorprim=9 / transfer=16 / colormatrix=9 / chromaloc=1 / chromaloc-top=2 / chromaloc-bottom=2 / display-window=0 / master-display=G(8500,39850)B(6550,2300)R(35400,14600)WP(15635,16450)L(10000000,01) / max-cll=0,0 / min-luma=0 / max-luma=1023 / log2-max-poc-lsb=8 / vui-timing-info / vui-hrd-info / slices=1 / opt-qp-pps / opt-ref-list-length-pps / no-multi-pass-opt-rps / scenecut-bias=0.05 / no-opt-cu-delta-qp / no-aq-motion / hdr / hdr-opt / no-dhdr10-opt / no-idr-recovery-sei / analysis-reuse-level=5 / scale-factor=0 / refine-intra=0 / refine-inter=0 / refine-mv=0 / refine-ctu-distortion=0 / no-limit-sao / ctu-info=0 / no-lowpass-dct / refine-analysis-type=943506952 / copy-pic=1 / max-ausize-factor=1.0 / no-dynamic-refine / no-single-sei / no-hevc-aq / no-svt / qp-adaptation-range=1.00
  22. Default            : Yes
  23. Forced           : No
  24. Color range          : Limited
  25. Color primaries        : BT.2020
  26. Transfer characteristics     : PQ
  27. Matrix coefficients        : BT.2020 non-constant
  28. Mastering display color primaries  : BT.2020
  29. Mastering display luminance    : min: 0.0001 cd/m2, max: 1000 cd/m2
  30. Audio #1
  31. ID             : 1
  32. Format           : DTS XLL
  33. Format/Info          : Digital Theater Systems
  34. Commercial name        : DTS-HD Master Audio
  35. Codec ID           : A_DTS
  36. Duration           : 1 h 30 min
  37. Bit rate mode          : Variable
  38. Bit rate           : 1 489 kb/s
  39. Channel(s)           : 2 channels
  40. Channel layout         : L R
  41. Sampling rate          : 48.0 kHz
  42. Frame rate           : 93.750 FPS (512 SPF)
  43. Bit depth          : 24 bits
  44. Compression mode         : Lossless
  45. Stream size          : 966 MiB (4%)
  46. Title            : DTS-HD MA 2.0
  47. Language           : English
  48. Default            : Yes
  49. Forced           : No
  50. Audio #2
  51. ID             : 3
  52. Format           : AC-3
  53. Format/Info          : Audio Coding 3
  54. Commercial name        : Dolby Digital
  55. Codec ID           : A_AC3
  56. Duration           : 1 h 30 min
  57. Bit rate mode          : Constant
  58. Bit rate           : 640 kb/s
  59. Channel(s)           : 2 channels
  60. Channel layout         : L R
  61. Sampling rate          : 48.0 kHz
  62. Frame rate           : 31.250 FPS (1536 SPF)
  63. Compression mode         : Lossy
  64. Stream size          : 415 MiB (2%)
  65. Title            : DD 2.0
  66. Language           : English
  67. Service kind         : Complete Main
  68. Default            : No
  69. Forced           : No
  70. Text #1
  71. ID             : 4
  72. Format           : UTF-8
  73. Codec ID           : S_TEXT/UTF8
  74. Codec ID/Info          : UTF-8 Plain Text
  75. Duration           : 1 h 28 min
  76. Bit rate           : 63 b/s
  77. Count of elements        : 1092
  78. Stream size          : 40.8 KiB (0%)
  79. Title            : English-SRT
  80. Language           : English
  81. Default            : Yes
  82. Forced           : No
  83. Text #2
  84. ID             : 5
  85. Format           : PGS
  86. Muxing mode          : zlib
  87. Codec ID           : S_HDMV/PGS
  88. Codec ID/Info          : Picture based subtitle format used on BDs/HD-DVDs
  89. Duration           : 1 h 28 min
  90. Bit rate           : 41.0 kb/s
  91. Count of elements        : 2346
  92. Stream size          : 25.9 MiB (0%)
  93. Title            : English-PGS
  94. Language           : English
  95. Default            : No
  96. Forced           : No
  97. Text #3
  98. ID             : 6
  99. Format           : PGS
  100. Muxing mode          : zlib
  101. Codec ID           : S_HDMV/PGS
  102. Codec ID/Info          : Picture based subtitle format used on BDs/HD-DVDs
  103. Duration           : 1 h 30 min
  104. Bit rate           : 61.1 kb/s
  105. Count of elements        : 3192
  106. Stream size          : 39.3 MiB (0%)
  107. Title            : English-SDH-PGS
  108. Language           : English
  109. Default            : No
  110. Forced           : No
  111. Menu
  112. 00:00:00.000         : :Chapter 01
  113. 00:08:00.208         : :Chapter 02
  114. 00:18:14.375         : :Chapter 03
  115. 00:25:27.333         : :Chapter 04
  116. 00:31:47.458         : :Chapter 05
  117. 00:38:20.292         : :Chapter 06
  118. 00:45:58.958         : :Chapter 07
  119. 00:52:51.250         : :Chapter 08
  120. 01:04:29.667         : :Chapter 09
  121. 01:10:36.500         : :Chapter 10
  122. 01:18:22.750         : :Chapter 11
  123. 01:27:37.083         : :Chapter 12
复制代码














字幕下载网站---点这里进入
回复

使用道具 举报

您需要登录后才可以回帖 登录 | 立即注册

本版积分规则

QQ|Archiver|手机版|小黑屋|蓝光电影网 ( 滇ICP备18001150号-1 )

GMT+8, 2021-1-22 23:28 , Processed in 0.055104 second(s), 24 queries .

Powered by Discuz! X3.4

Copyright © 2001-2020, Tencent Cloud.

快速回复 返回顶部 返回列表